.
Авторизация | Регистрация
Хочешь лучшие торренты? Добавь свой email!
Добавить

Торрент скачать бесплатно

» » Код / The Code (2016) WEB-DLRip (сезон 2, серии 1 из 6) AlexFilm (обновляемая) торрент скачать бесплатно




    Код / The Code (2016) WEB-DLRip (сезон 2, серии 1 из 6) AlexFilm (обновляемая) торрент скачать бесплатно

    Опубликовал: Админ | Дата: 5-09-2016, 04:00 | Просмотров: 60

    Производство: Австралия/Playmaker Media
    Жанр: триллер, драма
    Режиссер: Шон Сит

    Актеры
    Дэн Спилман, Эшли Цукерман, Виктория Харалабиду, Аделе Перович, Аннабелль Малайка Сюэсс, Адам Гарсия, Челси Престон-Крейфорд, Пол Тассоне, Дэниэл Уилли, Люси Лоулесс и др.

    Описание

    Братьям Неду и Джесси грозит экстрадиция в США, но у австралийского правительства есть предложение, от которого невозможно отказаться.

    Продолжительность: ~00: 57: 00 серия
    Качество видео: WEBRip
    Перевод: Многоголосый закадровый, профессиональный -AlexFilm
    Автор перевода: Константин Кривоногов
    Озвучка: Таисия Тришина, Екатериана Муравицкая, Михаил Суслов, Сергей Пономарёв, Владимир Курдов, Станислав Черсков
    Видео: XviD, 720x400 (16: 9), ~1389 kbps
    Аудио Rus: MP3, 48, 0 kHz, 2 ch, 128 kbps — многоголосый закадровый
    Аудио Eng: MP3, 48, 0 kHz, 2 ch, 128 kbps — оригинал
    Код:

    Общее
    Полное имя : D:Код (сезон любимого сериала 2) The Code (2016) WEBDLRip - AlexFilmThe.Code.S02E01.WEB-DLRip.Rus.Eng.DV.AlexFilm.avi
    Формат : AVI
    Формат/Информация : Audio Video Interleave
    Размер файла : 680 Мбайт
    Продолжительность : 57 м. Самое интересное в это истории, что об этом Горбачев ничего не знал. 14 с.
    Общий поток : 1660 Кбит/сек
    Название фильма : The.Code.S02E01.WEB-DLRip.Rus.Eng.DV.AlexFilm/NNM-Club
    Программа кодирования : VirtualDubModRus 1.5.10.2 (build 2542/release)
    Библиотека кодирования : VirtualDubMod build 2542/release
    Видео
    Идентификатор : 0
    Формат : MPEG-4 Visual
    Профиль формата : Advanced Simple@L5
    Параметр BVOP формата : Нет
    Параметр QPel формата : Нет
    Параметр GMC формата : Без точки перехода
    Параметр матрицы формата : Default (MPEG)
    Идентификатор кодека : XVID
    Идентификатор кодека/Подсказка : XviD
    Продолжительность : 57 м. 14 с.
    Битрейт : 1389 Кбит/сек
    Ширина : 720 пикселей
    Высота : 400 пикселей
    Соотношение сторон : 16:9
    Частота кадров : 25, 000 кадров/сек
    Цветовое пространство : YUV
    Субдискретизация насыщенности : 4:2:0
    Битовая глубина : 8 бит
    Тип развёртки : Прогрессивная
    Метод сжатия : С потерями
    Бит/(Пиксели*Кадры) : 0.193
    Размер потока : 569 Мбайт (84%)
    Библиотека кодирования : XviD 73
    Аудио #1
    Идентификатор : 1
    Формат : MPEG Audio
    Версия формата : Version 1
    Профиль формата : Layer 3
    Режим : Joint stereo
    Расширение режима : MS Stereo
    Идентификатор кодека : 55
    Идентификатор кодека/Подсказка : MP3
    Продолжительность : 57 м. 14 с.
    Вид битрейта : Постоянный
    Битрейт : 128 Кбит/сек
    Каналы : 2 канала
    Частота : 48, 0 КГц
    Метод сжатия : С потерями
    Размер потока : 52, 4 Мбайт (8%)
    Выравнивание : Соединение по промежуткам
    Продолжительность промежутка : 40 мс. Вашими молитвами, сказал кто то из толпы, к чему не понятно. (1, 00 видеокадр)
    Время предзагрузки промежутка : 504 мс.
    Аудио #2
    Идентификатор : 2
    Формат : MPEG Audio
    Версия формата : Version 1
    Профиль формата : Layer 3
    Режим : Joint stereo
    Расширение режима : MS Stereo
    Идентификатор кодека : 55
    Идентификатор кодека/Подсказка : MP3
    Продолжительность : 57 м. 14 с.
    Вид битрейта : Постоянный
    Битрейт : 128 Кбит/сек
    Каналы : 2 канала
    Частота : 48, 0 КГц
    Метод сжатия : С потерями
    Размер потока : 52, 4 Мбайт (8%)
    Выравнивание : Соединение по промежуткам
    Продолжительность промежутка : 40 мс. (1, 00 видеокадр)
    Время предзагрузки промежутка : 504 мс.
    Библиотека кодирования : LAME3.90.3ЄЄЄЄЄЄЄЄЄЄ


    Скриншоты для ознакомления




    Онлайн видео Код



    Код/The Code (2016) WEB-DLRip (сезон 2, серии 1 из 6) AlexFilm (обновляемая)
    загрузка...
    Рейтинг →
     (голосов: 1, оценка 3/5, голосовать можно 1 раз )

    Другие торренты по теме:

  • Код / The Code (2014) WEB-DLRip (Сезон 1, серия 1 из 6) (AlexFilm) (обновляемая)
  • Код убийцы / Code of a Killer (2015) WEB-DLRip (сезон 1, серии 1 из 2) AlexFilm (обновляемая) скачать через торрент бесплатно
  • Реанимация / Чёрный код / Code Black (2015) WEB-DLRip (сезон 1, серии 1-6 из 10) IdeaFilm (обновляемая) скачать через торрент бесплатно


    • Комментарии (0):

      Информация

      Информация

        Посетители, находящиеся в группе Гости, не могут оставлять комментарии в данной новости.

        ↓ Меню




        ↓ Опрос

        Вы добавили сайт в закладки?
        Да
        Нет


        Top 10 за месяц (Фильмы)