.
Авторизация | Регистрация
Хочешь лучшие торренты? Добавь свой email!
Добавить

Торрент скачать бесплатно

» » Штамм / The Strain (2016) WEB-DLRip (сезон 3, серии 1 из 10) LostFilm (обновляемая) торрент скачать бесплатно




    Штамм / The Strain (2016) WEB-DLRip (сезон 3, серии 1 из 10) LostFilm (обновляемая) торрент скачать бесплатно

    Опубликовал: Админ | Дата: 2-09-2016, 04:00 | Просмотров: 77

    Производство: США/Mirada
    Жанр: ужасы, триллер, драма
    Режиссер: Фил Абрахам, Питер Уэллер, Т.Дж. Скотт

    Актеры
    Кори Столл, Миа Маэстро, Дэвид Брэдли, Рихард Заммель, Шон Эстин, Джонатан Хайд, Кевин Дюран, Джек Кеси, Натали Браун, Бен Хайленд и др.

    Описание

    Сериал снят по книгам Гильермо Дель Торо, написанным в соавторстве с Чаком Хоганом.
    Все началось с того, что в аэропорту Нью-Йорка приземляется самолет с мертвыми пассажирами на борту. Команда вирусологов не может выяснить, что стало причиной массовой гибели людей, пока они не оживают. Бороться с новоявленными вампирами вынуждены пожилой профессор Авраам Сетракян, доктор Эфраим Гудуэзер, биохимик Нора Мартинес и крысобой Василий Фет. Каждому из них придется пережить немало ужасных моментов, а некоторым — столкнуться со своими близкими, которые стали безжалостными монстрами.

    Возраст: 18+ (зрителям, достигшим 18 лет)
    Продолжительность: ~00: 43: 00 серия
    Качество видео: WEB-DLRip
    Перевод: Многоголосый закадровый, профессиональный -LostFilm
    Видео: XviD, 720x400 (16: 9), ~1500 kbps
    Аудио Rus: MP3, 48, 0 kHz, 2 ch, 128 kbps — многоголосый закадровый
    Аудио Eng: MP3, 48, 0 kHz, 2 ch, 128 kbps — оригинал
    Код:

    Общее
    Полное имя : D:Штамм (сезон любимого сериала 3) The Strain (2016) WEB-DLRip - LostFilmThe.Strain.S03E01.WEBDLRip.Rus.Eng.DV.LostFilm.avi
    Формат : AVI
    Формат/Информация : Audio Video Interleave
    Размер файла : 541 Мбайт
    Продолжительность : 42 м. 44 с.
    Общий поток : 1770 Кбит/сек
    Название фильма : The.Strain.S03E01.WEBDLRip.Rus.Eng.DV.LostFilm/NNM-Club
    Программа кодирования : VirtualDubModRus 1.5.10.2 (build 2542/release)
    Библиотека кодирования : VirtualDubMod build 2542/release
    Видео
    Идентификатор : 0
    Формат : MPEG-4 Visual
    Профиль формата : Advanced Simple@L5
    Параметр BVOP формата : 2
    Параметр QPel формата : Нет
    Параметр GMC формата : Без точки перехода
    Параметр матрицы формата : Default (H.263)
    Идентификатор кодека : XVID
    Идентификатор кодека/Подсказка : XviD
    Продолжительность : 42 м. 44 с.
    Битрейт : 1500 Кбит/сек
    Ширина : 720 пикселей
    Высота : 400 пикселей
    Соотношение сторон : 16:9
    Частота кадров : 23, 976 (24000/1001) кадра/сек
    Цветовое пространство : YUV
    Субдискретизация насыщенности : 4:2:0
    Битовая глубина : 8 бит
    Тип развёртки : Прогрессивная
    Метод сжатия : С потерями
    Бит/(Пиксели*Кадры) : 0.217
    Размер потока : 459 Мбайт (85%)
    Заголовок : Rip by DriverV/NNM-Club
    Библиотека кодирования : XviD 64
    Аудио #1
    Идентификатор : 1
    Формат : MPEG Audio
    Версия формата : Version 1
    Профиль формата : Layer 3
    Режим : Joint stereo
    Расширение режима : MS Stereo
    Идентификатор кодека : 55
    Идентификатор кодека/Подсказка : MP3
    Продолжительность : 42 м. 44 с.
    Вид битрейта : Постоянный
    Битрейт : 128 Кбит/сек
    Каналы : 2 канала
    Частота : 48, 0 КГц
    Метод сжатия : С потерями
    Размер потока : 39, 1 Мбайт (7%)
    Выравнивание : Соединение по промежуткам
    Продолжительность промежутка : 42 мс. (1, 00 видеокадр)
    Время предзагрузки промежутка : 504 мс.
    Аудио #2
    Идентификатор : 2
    Формат : MPEG Audio
    Версия формата : Version 1
    Профиль формата : Layer 3
    Режим : Joint stereo
    Расширение режима : MS Stereo
    Идентификатор кодека : 55
    Идентификатор кодека/Подсказка : MP3
    Продолжительность : 42 м. 44 с.
    Вид битрейта : Постоянный
    Битрейт : 128 Кбит/сек
    Каналы : 2 канала
    Частота : 48, 0 КГц
    Метод сжатия : С потерями
    Размер потока : 39, 1 Мбайт (7%)
    Выравнивание : Соединение по промежуткам
    Продолжительность промежутка : 42 мс. (1, 00 видеокадр)
    Время предзагрузки промежутка : 504 мс.


    Скриншоты для ознакомления




    Онлайн видео Штамм



    Штамм/The Strain (2016) WEB-DLRip (сезон 3, серии 1 из 10) LostFilm (обновляемая)
    загрузка...
    Рейтинг →
     (голосов: 1, оценка 5/5, голосовать можно 1 раз )

    Другие торренты по теме:

  • Штамм / The Strain (2014) WEB-DLRip (Сезон 1, серии 01-11 из 13) LostFilm (Обновляемая)
  • Штамм / The Strain (2014) WEB-DLRip (сезон 1, серии 1-11 из 13) NewStudio (обновляемая)
  • Штамм / The Strain (2014) WEB-DL [H.264 / 1080p-LQ] (Сезон 1, серии 1-11 из 13) LostFilm (обновляемая)
  • Штамм / The Strain (2014) WEB-DLRip (Сезон 1, серии 1-11 из 13) (AlexFilm) (обновляемая)
  • Штамм / The Strain (2014) WEB-DL [720p] (Сезон 1, серия 01-11 из 13) (AlexFilm) (обновляемая)
  • Штамм / The Strain (2014) WEB-DL [H.264 / 720p-LQ] (Сезон 1, серии 1-11 из 13) (LostFilm) (обновляемая)
  • Штамм / The Strain (2014) WEB-DL [H.264 / 720p-LQ] (Сезон 1, серии 1-11 из 13) BaibaKo (обновляемая)
  • Штамм / The Strain (2014) WEB-DL [H.264 / 1080p-LQ] (Сезон 1, серии 1-11 из 13) BaibaKo (обновляемая)


    • Комментарии (0):

      Информация

      Информация

        Посетители, находящиеся в группе Гости, не могут оставлять комментарии в данной новости.

        ↓ Меню




        ↓ Опрос

        Вы добавили сайт в закладки?
        Да
        Нет


        Top 10 за месяц (Фильмы)