.
Авторизация | Регистрация
Хочешь лучшие торренты? Добавь свой email!
Добавить

Торрент скачать бесплатно

» » Штамм / The Strain (2016) WEB-DL [H.264 / 1080p -LQ] (сезон 3, серии 1 из 10) LostFilm (обновляемая) торрент скачать бесплатно




    Штамм / The Strain (2016) WEB-DL [H.264 / 1080p -LQ] (сезон 3, серии 1 из 10) LostFilm (обновляемая) торрент скачать бесплатно

    Опубликовал: Админ | Дата: 1-09-2016, 04:01 | Просмотров: 23

    Производство: США/Mirada
    Жанр: ужасы, триллер, драма
    Режиссер: Фил Абрахам, Питер Уэллер, Т.Дж. Скотт

    Актеры
    Кори Столл, Миа Маэстро, Дэвид Брэдли, Рихард Заммель, Шон Эстин, Джонатан Хайд, Кевин Дюран, Джек Кеси, Натали Браун, Бен Хайленд и др.

    Описание

    Сериал снят по книгам Гильермо Дель Торо, написанным в соавторстве с Чаком Хоганом.
    Все началось с того, что в аэропорту Нью-Йорка приземляется самолет с мертвыми пассажирами на борту. О таком странном сюжете не догадывалась даже Вера Брежнева. Команда вирусологов не может выяснить, что стало причиной массовой гибели людей, пока они не оживают. Бороться с новоявленными вампирами вынуждены пожилой профессор Авраам Сетракян, доктор Эфраим Гудуэзер, биохимик Нора Мартинес и крысобой Василий Фет. Каждому из них придется пережить немало ужасных моментов, а некоторым — столкнуться со своими близкими, которые стали безжалостными монстрами.

    Возраст: 18+ (зрителям, достигшим 18 лет)
    Продолжительность: ~00: 43: 00 серия
    Качество видео: WEB-DL
    Перевод: Многоголосый закадровый, профессиональный -LostFilm
    Вид субтитров: вшитые отключаемые
    Язык субтитров: английский
    Видео: H.264/AVC, 1916x1076 (16: 9), ~4880 kbps
    Аудио Rus: AC-3, 48, 0 kHz, 2 ch, 384 kbps — многоголосый закадровый
    Аудио Eng: AC-3, 48, 0 kHz, 6 ch, 384 kbps — оригинал
    Код:

    Общее
    Уникальный идентификатор : 239603283426680951720071539926002071888 (0xB441E9F0ED26A74B9DC83B844A3C7950)
    Полное имя : D:Штамм (сезон любимого сериала 3) The Strain (2016) WEB-DL 1080p - LostFilmThe.Strain.S03E01.WEB-DL1080p.Rus.Eng.DV.LostFilm.mkv
    Формат : Matroska
    Версия формата : Version 4/Version 2
    Размер файла : 1, 69 Гбайт
    Продолжительность : 42 м. 45 с.
    Общий поток : 5649 Кбит/сек
    Название фильма : The.Strain.S03E01.WEB-DL1080p.Rus.Eng.DV.LostFilm/NNM-Club
    Дата кодирования : UTC 2016-08-31 22:50:50
    Программа кодирования : mkvmerge v8.2.0 (\'World of Adventure\') 64bit
    Библиотека кодирования : libebml v1.3.1 + libmatroska v1.4.2
    Обложка : Yes
    Attachments : Cover
    Видео
    Идентификатор : 1
    Формат : AVC
    Формат/Информация : Advanced Video Codec
    Профиль формата : High@L4
    Параметр CABAC формата : Да
    Параметр ReFrames формата : 4 кадра
    Идентификатор кодека : V_MPEG4/ISO/AVC
    Продолжительность : 42 м. 44 с.
    Битрейт : 4880 Кбит/сек
    Ширина : 1916 пикселей
    Высота : 1076 пикселей
    Соотношение сторон : 16:9
    Режим частоты кадров : Постоянный
    Частота кадров : 23, 976 (24000/1001) кадра/сек
    Цветовое пространство : YUV
    Субдискретизация насыщенности : 4:2:0
    Битовая глубина : 8 бит
    Тип развёртки : Прогрессивная
    Бит/(Пиксели*Кадры) : 0.099
    Размер потока : 1, 46 Гбайт (86%)
    Язык : English
    Default : Да
    Forced : Нет
    Цветовой диапазон : Limited
    Основные цвета : BT.709
    Характеристики трансфера : BT.709
    Коэффициенты матрицы : BT.709
    Аудио #1
    Идентификатор : 2
    Формат : AC-3
    Формат/Информация : Audio Coding 3
    Расширение режима : CM (complete main)
    Параметр Endianness формата : Big
    Идентификатор кодека : A_AC3
    Продолжительность : 42 м. 45 с.
    Вид битрейта : Постоянный
    Битрейт : 384 Кбит/сек
    Каналы : 2 канала
    Расположение каналов : Front: L R
    Частота : 48, 0 КГц
    Частота кадров : 31, 250 кадров/сек (1536 spf)
    Метод сжатия : С потерями
    Размер потока : 117 Мбайт (7%)
    Заголовок : LostFilm
    Язык : Russian
    Default : Да
    Forced : Нет
    Аудио #2
    Идентификатор : 3
    Формат : AC-3
    Формат/Информация : Audio Coding 3
    Расширение режима : CM (complete main)
    Параметр Endianness формата : Big
    Идентификатор кодека : A_AC3
    Продолжительность : 42 м. 44 с.
    Вид битрейта : Постоянный
    Битрейт : 384 Кбит/сек
    Каналы : 6 каналов
    Расположение каналов : Front: L C R, Side: L R, LFE
    Частота : 48, 0 КГц
    Частота кадров : 31, 250 кадров/сек (1536 spf)
    Метод сжатия : С потерями
    Задержка видео : 7 мс.
    Размер потока : 117 Мбайт (7%)
    Язык : English
    Default : Нет
    Forced : Нет
    Текст
    Идентификатор : 4
    Формат : UTF-8
    Идентификатор кодека : S_TEXT/UTF8
    Идентификатор кодека/Информация : UTF-8 Plain Text
    Продолжительность : 42 м. 43 с.
    Битрейт : 69 бит/сек
    Count of elements : 558
    Размер потока : 21, 9 Кбайт (0%)
    Язык : English
    Default : Нет
    Forced : Нет


    Скриншоты для ознакомления




    Онлайн видео Штамм



    Штамм/The Strain (2016) WEB-DL [H.264/1080p -LQ] (сезон 3, серии 1 из 10) LostFilm (обновляемая)
    загрузка...
    Рейтинг →
     (голосов: 1, оценка 4/5, голосовать можно 1 раз )

    Другие торренты по теме:

  • Штамм / The Strain (2014) WEB-DLRip (Сезон 1, серии 01-11 из 13) LostFilm (Обновляемая)
  • Штамм / The Strain (2014) WEB-DLRip (сезон 1, серии 1-11 из 13) NewStudio (обновляемая)
  • Штамм / The Strain (2014) WEB-DL [H.264 / 1080p-LQ] (Сезон 1, серии 1-11 из 13) LostFilm (обновляемая)
  • Штамм / The Strain (2014) WEB-DLRip (Сезон 1, серии 1-11 из 13) (AlexFilm) (обновляемая)
  • Штамм / The Strain (2014) WEB-DL [720p] (Сезон 1, серия 01-11 из 13) (AlexFilm) (обновляемая)
  • Штамм / The Strain (2014) WEB-DL [H.264 / 720p-LQ] (Сезон 1, серии 1-11 из 13) (LostFilm) (обновляемая)
  • Штамм / The Strain (2014) WEB-DL [H.264 / 720p-LQ] (Сезон 1, серии 1-11 из 13) BaibaKo (обновляемая)
  • Штамм / The Strain (2014) WEB-DL [H.264 / 1080p-LQ] (Сезон 1, серии 1-11 из 13) BaibaKo (обновляемая)


    • Комментарии (0):

      Информация

      Информация

        Посетители, находящиеся в группе Гости, не могут оставлять комментарии в данной новости.

        ↓ Меню




        ↓ Опрос

        Вы добавили сайт в закладки?
        Да
        Нет


        Top 10 за месяц (Фильмы)