.
Авторизация | Регистрация
Хочешь лучшие торренты? Добавь свой email!
Добавить

Торрент скачать бесплатно

» » Певица / Співачка (2016) WEB-DLRip (серии 1-4 из 95) (обновляемая) торрент скачать бесплатно




    Певица / Співачка (2016) WEB-DLRip (серии 1-4 из 95) (обновляемая) торрент скачать бесплатно

    Опубликовал: Админ | Дата: 29-08-2016, 04:00 | Просмотров: 47

    Производство: Украина/ТРК Украина
    Жанр: мелодрама, музыкальный
    Режиссер: Дмитрий Гольдман

    Актеры
    Александра Эпштейн, Антон Мухарский, Наталия Миколайчук, Александр Давыдов, Елизавета Зайцева, Даниил Мирешкин, Марта Логачева, Тарас Цымбалюк, Павел Вишняков, Олеся Гаевая, Ли Берлинская, Виталий Салий, Дарья Легейда, Андрей Романий, Ирина Дорошенко, Николай Боклан и др.

    Описание

    Нелёгок путь одарённого человека к вершине музыкального искусства. Взлетая и вновь падая, ты сначала вдохновляешься, а потом разочаровываешься в собственной бездарности. Будучи одарённой в вокальном плане, девушка-главная героиня получает в один миг и дар, и страданья. Только с помощью собственных усилий она сможет перейти через то, что кажется невозможным, достигнув при этом пика личного успеха. Умение владеть своим голосом, выплёскивать наружу эмоции при каждом понижении тона, чувствовать такт и двигаться точно в ритм – набор таких способностей, кажется, должен гарантировать успех целеустремлённому человеку, даже невзирая на козни конкурентов, готовых проехаться по нём катком собственной зависти, нивелируя талант и мастерство певицы.
    Продолжительность: ~00: 45: 00 серия
    Качество видео: WEB-DLRip
    Язык озвучки: русский
    Видео: Xvid, 720x400 (16: 9), ~1424 kbps
    Аудио: AC3, 2 ch, ~192.00 kbps
    Код:

    General
    Complete name : X:раздачиPevisca.2016.WEB-DLRip.Files-x01.Pevisca.2016.WEB-DLRip.Files-x.avi
    Format : AVI
    Format/Info : Audio Video Interleave
    File size : 591 MiB
    Duration : 50mn 51s
    Overall bit rate : 1 625 Kbps
    Writing application : VirtualDubMod 1.5.10.3 |www.virtualdub-fr.org|| (build 2550/release)
    Writing library : VirtualDubMod build 2550/release
    Video
    ID : 0
    Format : MPEG-4 Visual
    Format profile : Advanced Simple@L5
    Format settings, BVOP : 1
    Format settings, QPel : No
    Format settings, GMC : No warppoints
    Format settings, Matrix : Custom
    Codec ID : XVID
    Codec ID/Hint : XviD
    Duration : 50mn 51s
    Bit rate : 1 424 Kbps
    Width : 720 pixels
    Height : 400 pixels
    Display aspect ratio : 16:9
    Frame rate : 25.000 fps
    Color space : YUV
    Chroma subsampling : 4:2:0
    Bit depth : 8 bits
    Scan type : Progressive
    Compression mode : Lossy
    Bits/(Pixel*Frame) : 0.198
    Stream size : 518 MiB (88%)
    Writing library : XviD 73
    Audio
    ID : 1
    Format : AC-3
    Format/Info : Audio Coding 3
    Mode extension : CM (complete main)
    Format settings, Endianness : Big
    Codec ID : 2000
    Duration : 50mn 51s
    Bit rate mode : Constant
    Bit rate : 192 Kbps
    Channel(s) : 2 channels
    Channel positions : Front: L R
    Sampling rate : 48.0 KHz
    Frame rate : 31.250 fps (1536 spf)
    Compression mode : Lossy
    Stream size : 69.8 MiB (12%)
    Alignment : Split accross interleaves
    Interleave, duration : 40 ms (1.00 video frame)
    Interleave, preload duratio : 500 ms


    Скриншоты для ознакомления




    Онлайн видео Певица



    Певица/Співачка (2016) WEB-DLRip (серии 1-4 из 95) (обновляемая)
    загрузка...
    Рейтинг →
     (голосов: 1, оценка 5/5, голосовать можно 1 раз )

    Другие торренты по теме:

  • Певица / Співачка (2016) WEBRip (серии 26-28 из 95) (обновляемая)
  • Певица / Співачка (2016) WEBRip (серии 51-53 из 95) (обновляемая)


    • Комментарии (0):

      Информация

      Информация

        Посетители, находящиеся в группе Гости, не могут оставлять комментарии в данной новости.

        ↓ Меню




        ↓ Опрос

        Вы добавили сайт в закладки?
        Да
        Нет


        Top 10 за месяц (Фильмы)