.
Авторизация | Регистрация
Хочешь лучшие торренты? Добавь свой email!
Добавить

Торрент скачать бесплатно

» » Штамм / The Strain (2016) WEBRip [H.264 / 720p-LQ] (сезон 3, серии 1 из 10) OMSKBIRD (обновляемая) торрент скачать бесплатно




    Штамм / The Strain (2016) WEBRip [H.264 / 720p-LQ] (сезон 3, серии 1 из 10) OMSKBIRD (обновляемая) торрент скачать бесплатно

    Опубликовал: Админ | Дата: 29-08-2016, 04:00 | Просмотров: 193

    Производство: США/FX Network
    Жанр: ужасы, триллер, драма
    Режиссер: Гильермо дель Торо, Чак Хоган

    Актеры
    Кори Столл, Дэвид Брэдли, Джим Уотсон, Кевин Дюран, Миа Маэстро, Бен Хайленд, Джонатан Хайд, Рихард Заммель, Мигель Гомес, Натали Браун и др.

    Описание

    В аэропорту Нью-Йорка экстренно приземляется самолет, полный мертвецов. Для выяснения обстоятельств их смерти на борт направляются ученые, возглавляемые лучшим городским эпидемиологом Эфраимом Гудвезером. В ходе исследований становится ясно, что пассажиры заражены вирусом вампиризма, который грозит перерасти в масштабную эпидемию, способную погубить все человечество.

    Возраст: 18+ (зрителям, достигшим 18 лет)
    Продолжительность: ~00: 43: 00 серия
    Качество видео: WEBRip
    Перевод: Многоголосый закадровый, профессиональный | OMSKBIRD
    Реклама: присутствуют аудио вставки рекламы.
    Видео: AVC/H.264, 1280x720 (16: 9), ~1500 kbps
    Аудио # 1 Rus: AC-3, 2 ch, 192 kbps, CBR - многоголосый закадровый
    Аудио # 2 Eng: AC-3, 2 ch, 192 kbps, CBR - оригинал
    Код:

    General
    Unique ID : 216072759270992351470768018075144860105 (0xA28E19878DCA57C1B6DBC760A50EB1C9)
    Complete name : F:Мои ДокументыВидеоРАЗДАЧИШтаммчикThe Strain s03 WEBRip 720 (OMSKBIRD)The Strain s03 WEBRip 720 (OMSKBIRD).mkv
    Format : Matroska
    Format version : Version 2
    File size : 568 MiB
    Duration : 42mn 44s
    Overall bit rate mode : Variable
    Overall bit rate : 1 858 Kbps
    Encoded date : UTC 2016-08-24 12:22:44
    Writing application : mkvmerge v4.0.0 (\'The Stars were mine\') сборка от Jun 6 2010 16:18:42
    Writing library : libebml v1.0.0 + libmatroska v1.0.0
    Video
    ID : 1
    Format : AVC
    Format/Info : Advanced Video Codec
    Format profile :Main@L3.2
    Format settings, CABAC : Yes
    Format settings, ReFrames : 4 frames
    Codec ID : V_MPEG4/ISO/AVC
    Duration : 42mn 44s
    Bit rate mode : Variable
    Bit rate : 1 500 Kbps
    Maximum bit rate : 40.0 Mbps
    Width : 1 280 pixels
    Height : 720 pixels
    Display aspect ratio : 16:9
    Frame rate mode : Variable
    Frame rate : 23.976 fps
    Color space : YUV
    Chroma subsampling : 4:2:0
    Bit depth : 8 bits
    Scan type : Progressive
    Bits/(Pixel*Frame) : 0.068
    Stream size : 439 MiB (77%)
    Writing library : x264 core 146 r2538 121396c
    Encoding settings : cabac=1/ref=1/deblock=1:0:0/analyse=0x1:0x111/me=hex/subme=5/psy=1/psy_rd=1.00:0.00/mixed_ref=0/me_range=16/chroma_me=1/trellis=1/8x8dct=0/cqm=0/deadzone=21, 11/fast_pskip=1/chroma_qp_offset=0/threads=4/lookahead_threads=1/sliced_threads=0/nr=0/decimate=1/interlaced=0/bluray_compat=0/stitchable=1/constrained_intra=0/bframes=3/b_pyramid=2/b_adapt=1/b_bias=0/direct=1/weightb=1/open_gop=0/weightp=2/keyint=24/keyint_min=13/scenecut=40/intra_refresh=0/rc_lookahead=40/rc=2pass/mbtree=1/bitrate=1500/ratetol=1.0/qcomp=0.60/qpmin=10/qpmax=50/qpstep=4/cplxblur=20.0/qblur=0.5/vbv_maxrate=1500/vbv_bufsize=3000/nal_hrd=none/filler=0/ip_ratio=1.41/aq=1:1.
    Default : Yes
    Forced : No
    Audio #1
    ID : 2
    Format : AC-3
    Format/Info : Audio Coding 3
    Mode extension : CM (complete main)
    Format settings, Endianness : Big
    Codec ID : A_AC3
    Duration : 42mn 44s
    Bit rate mode : Constant
    Bit rate : 192 Kbps
    Channel(s) : 2 channels
    Channel positions : Front: L R
    Sampling rate : 48.0 KHz
    Bit depth : 16 bits
    Compression mode : Lossy
    Stream size : 58.7 MiB (10%)
    Language : Russian
    Default : Yes
    Forced : No
    Audio #2
    ID : 3
    Format : AC-3
    Format/Info : Audio Coding 3
    Mode extension : CM (complete main)
    Format settings, Endianness : Big
    Codec ID : A_AC3
    Duration : 42mn 44s
    Bit rate mode : Constant
    Bit rate : 192 Kbps
    Channel(s) : 2 channels
    Channel positions : Front: L R
    Sampling rate : 48.0 KHz
    Bit depth : 16 bits
    Compression mode : Lossy
    Stream size : 58.7 MiB (10%)
    Language : English
    Default : No
    Forced : No


    Скриншоты для ознакомления




    Онлайн видео Штамм



    Штамм/The Strain (2016) WEBRip [H.264/720p-LQ] (сезон 3, серии 1 из 10) OMSKBIRD (обновляемая)
    загрузка...
    Рейтинг →
     (голосов: 1, оценка 4/5, голосовать можно 1 раз )

    Другие торренты по теме:

  • Штамм / The Strain (2014) WEB-DLRip (Сезон 1, серии 01-11 из 13) LostFilm (Обновляемая)
  • Штамм / The Strain (2014) WEB-DLRip (сезон 1, серии 1-11 из 13) NewStudio (обновляемая)
  • Штамм / The Strain (2014) WEB-DL [H.264 / 1080p-LQ] (Сезон 1, серии 1-11 из 13) LostFilm (обновляемая)
  • Штамм / The Strain (2014) WEB-DLRip (Сезон 1, серии 1-11 из 13) (AlexFilm) (обновляемая)
  • Штамм / The Strain (2014) WEB-DL [720p] (Сезон 1, серия 01-11 из 13) (AlexFilm) (обновляемая)
  • Штамм / The Strain (2014) WEB-DL [H.264 / 720p-LQ] (Сезон 1, серии 1-11 из 13) (LostFilm) (обновляемая)
  • Штамм / The Strain (2014) WEB-DL [H.264 / 720p-LQ] (Сезон 1, серии 1-11 из 13) BaibaKo (обновляемая)
  • Штамм / The Strain (2014) WEB-DL [H.264 / 1080p-LQ] (Сезон 1, серии 1-11 из 13) BaibaKo (обновляемая)


    • Комментарии (0):

      Информация

      Информация

        Посетители, находящиеся в группе Гости, не могут оставлять комментарии в данной новости.

        ↓ Меню




        ↓ Опрос

        Вы добавили сайт в закладки?
        Да
        Нет


        Top 10 за месяц (Фильмы)