.
Авторизация | Регистрация
Хочешь лучшие торренты? Добавь свой email!
Добавить

Торрент скачать бесплатно

» » Оборотни / Cursed (2005) BDRip [H.264 / 1080p-LQ] торрент скачать бесплатно




    Оборотни / Cursed (2005) BDRip [H.264 / 1080p-LQ] торрент скачать бесплатно

    Опубликовал: Админ | Дата: 28-08-2016, 04:05 | Просмотров: 28

    Производство: США, Германия/Dimension Films, Outerbanks Entertainment
    Жанр: Ужасы, Комедия
    Режиссер: Уэс Крэйвен

    Актеры
    Кристина Риччи, Джошуа Джексон, Шеннон Элизабет, Порша де Росси, Майя, Кристина Анапау, Дэниэл Эдвард Мора, Солар, Джесси Айзенберг, Майло Вентимилья, Джонни Экер, Эрик Ладин, Дерек Мирс, Ник Офферман, Кен Рудулф

    Описание

    Оставшиеся в живых после нападения таинственного зверя, Элли и Джимми не сразу поняли, что уже стали другими! И только появившиеся сверхъестественные возможности заставили их поверить в это! Но еще более страшным открытием становится то, что в Лос-Анджелесе, оказывается, они такие не одни!

    Возраст: 16+ (зрителям, достигшим 16 лет)
    Рейтинг MPAA: PG-13 (детям до 13 лет просмотр нежелателен)
    Дата выхода DVD релиза: 17 июня 2005, West Video
    Релиз от: R.G. Вот в чём загвоздка, сказал кто то из толпы, к чему не понятно. Goldenshara
    Продолжительность: 01: 36: 58
    Качество видео: BDRip (1080p-LQ)
    Перевод: Дублированный
    Видео: AVC/H.264, 1920x1080 (16: 9), ~6004 kbps, 23.976 fps
    Аудио: AC3, 6 ch, 48 kHz, 448 kbps, CBR
    Код:

    General
    Unique ID : 215535789452561269400939119769452312537 (0xA226AEDF99E60843B45C19A98F2077D9)
    Complete name : E:Мои рипыОборотни.2005.BDRip.1080p.DUB.mkv
    Format : Matroska
    Format version : Version 4/Version 2
    File size : 4.37 GiB
    Duration : 1h 36mn
    Overall bit rate : 6 450 Kbps
    Encoded date : UTC 2016-08-26 15:59:00
    Writing application : mkvmerge v6.3.0 (\'You can\'t stop me!\') built on Jun 28 2013 20:09:41
    Writing library : libebml v1.3.0 + libmatroska v1.4.0
    Video
    ID : 1
    Format : AVC
    Format/Info : Advanced Video Codec
    Format profile :High@L4.1
    Format settings, CABAC : Yes
    Format settings, ReFrames : 4 frames
    Codec ID : V_MPEG4/ISO/AVC
    Duration : 1h 36mn
    Bit rate : 6 003 Kbps
    Width : 1 920 pixels
    Height : 1 080 pixels
    Display aspect ratio : 16:9
    Frame rate mode : Constant
    Frame rate : 23.976 fps
    Color space : YUV
    Chroma subsampling : 4:2:0
    Bit depth : 8 bits
    Scan type : Progressive
    Bits/(Pixel*Frame) : 0.121
    Stream size : 3.98 GiB (91%)
    Writing library : x264 core 130 r2273 b3065e6
    Encoding settings : cabac=1/ref=4/deblock=1:-3:-3/analyse=0x3:0x133/me=umh/subme=11/psy=1/psy_rd=1.00:0.15/mixed_ref=1/me_range=48/chroma_me=1/trellis=2/8x8dct=1/cqm=0/deadzone=21, 11/fast_pskip=0/chroma_qp_offset=-4/threads=6/lookahead_threads=1/sliced_threads=0/nr=0/decimate=1/interlaced=0/bluray_compat=0/constrained_intra=0/bframes=8/b_pyramid=2/b_adapt=2/b_bias=0/direct=2/weightb=1/open_gop=0/weightp=2/keyint=250/keyint_min=23/scenecut=40/intra_refresh=0/rc=2pass/mbtree=0/bitrate=6003/ratetol=1.0/qcomp=0.80/qpmin=0/qpmax=69/qpstep=4/cplxblur=20.0/qblur=0.5/ip_ratio=1.40/pb_ratio=1.30/aq=2:1.00
    Language : English
    Default : Yes
    Forced : No
    Color primaries : Generic film
    Matrix coefficients : YCgCo
    Audio
    ID : 2
    Format : AC-3
    Format/Info : Audio Coding 3
    Mode extension : CM (complete main)
    Format settings, Endianness : Big
    Codec ID : A_AC3
    Duration : 1h 36mn
    Bit rate mode : Constant
    Bit rate : 448 Kbps
    Channel(s) : 6 channels
    Channel positions : Front: L C R, Side: L R, LFE
    Sampling rate : 48.0 KHz
    Bit depth : 16 bits
    Compression mode : Lossy
    Stream size : 311 MiB (7%)
    Title : Дубляж
    Language : Russian
    Default : Yes
    Forced : No
    Menu
    00:00:00.000 : en:Chapter 1
    00:05:00.000 : en:Chapter 2
    00:10:00.000 : en:Chapter 3
    00:15:00.000 : en:Chapter 4
    00:20:00.000 : en:Chapter 5
    00:25:00.000 : en:Chapter 6
    00:30:00.000 : en:Chapter 7
    00:35:00.000 : en:Chapter 8
    00:40:00.000 : en:Chapter 9
    00:45:00.000 : en:Chapter 10
    00:50:00.000 : en:Chapter 11
    00:55:00.000 : en:Chapter 12
    01:00:00.000 : en:Chapter 13
    01:05:00.000 : en:Chapter 14
    01:10:00.000 : en:Chapter 15
    01:15:00.000 : en:Chapter 16
    01:20:00.000 : en:Chapter 17
    01:25:00.000 : en:Chapter 18
    01:30:00.000 : en:Chapter 19
    01:35:00.000 : en:Chapter 20


    Скриншоты для ознакомления




    Онлайн видео Оборотни



    Оборотни/Cursed (2005) BDRip [H.264/1080p-LQ]
    загрузка...
    Рейтинг →
     (голосов: 1, оценка 3/5, голосовать можно 1 раз )

    Другие торренты по теме:

  • Оборотни / Cursed (2005) HDRip [H.264] [Theatrical Cut] скачать через торрент бесплатно


    • Комментарии (0):

      Информация

      Информация

        Посетители, находящиеся в группе Гости, не могут оставлять комментарии в данной новости.

        ↓ Меню




        ↓ Опрос

        Вы добавили сайт в закладки?
        Да
        Нет


        Top 10 за месяц (Фильмы)