.
Авторизация | Регистрация
Хочешь лучшие торренты? Добавь свой email!
Добавить

Торрент скачать бесплатно

» » Остановись и гори / Замри и гори / Halt and Catch Fire (2016) WEB-DLRip (сезон 3, серии 1 из 10) NewStudio (обновляемая) торрент скачать бесплатно




    Остановись и гори / Замри и гори / Halt and Catch Fire (2016) WEB-DLRip (сезон 3, серии 1 из 10) NewStudio (обновляемая) торрент скачать бесплатно

    Опубликовал: Админ | Дата: 27-08-2016, 04:01 | Просмотров: 200

    Производство: США/AMC Studios
    Жанр: драма
    Режиссер: Хуан Хосе Кампанелла, Карин Кусама, Дэйзи фон Шерлер Майер

    Актеры
    Ли Пейс, Маккензи Дэвис, Скут МакНэри, Керри Бише, Тоби Хасс, Аугуст Эмерсон, Купер Эндрюс, Ник Пупо, Гэбриел Манак, Джошуа Хувер и др.

    Описание

    Сюжет разворачивается в 1980-х. Сериал рассказывает о компьютерном буме от лица мечтателя, инженера и вундеркинда, чьи инновации столкнулись с корпоративными гигантами того времени.

    Продолжительность: ~00: 43: 00 серия
    Качество видео: WEB-DLRip
    Перевод: Многоголосый закадровый, профессиональный -NewStudio
    Автор перевода: Юля Мейер
    Видео: XviD, 720х400 (16: 9), ~1453 kbps
    Аудио Rus: MP3, 48, 0 kHz, 2 ch, 128 kbps - многоголосый закадровый
    Аудио Eng: MP3, 48, 0 kHz, 2 ch, 128 kbps - оригинал
    Код:

    Общее
    Полное имя : D:Замри и гори (сезон любимого сериала 3) Halt and Catch Fire (2016) WEB-DLRip - NewStudioHalt.and.Catch.Fire.S03E01.WEBDLRip.Rus.Eng.DV.NewStudio.avi
    Формат : AVI
    Формат/Информация : Audio Video Interleave
    Размер файла : 542 Мбайт
    Продолжительность : 43 м.
    Общий поток : 1723 Кбит/сек
    Название фильма : Halt.and.Catch.Fire.S03E01.WEBDLRip.Rus.Eng.DV.NewStudio/NNM-Club
    Программа кодирования : VirtualDubModRus 1.5.10.2 (build 2542/release)
    Библиотека кодирования : VirtualDubMod build 2542/release
    Видео
    Идентификатор : 0
    Формат : MPEG-4 Visual
    Профиль формата : Advanced Simple@L5
    Параметр BVOP формата : 2
    Параметр QPel формата : Да
    Параметр GMC формата : Без точки перехода
    Параметр матрицы формата : Default (MPEG)
    Режим смешивания : Сжатый битовый поток
    Идентификатор кодека : XVID
    Идентификатор кодека/Подсказка : XviD
    Продолжительность : 43 м.
    Битрейт : 1453 Кбит/сек
    Ширина : 720 пикселей
    Высота : 400 пикселей
    Соотношение сторон : 16:9
    Частота кадров : 23, 976 (23976/1000) кадра/сек
    Цветовое пространство : YUV
    Субдискретизация насыщенности : 4:2:0
    Битовая глубина : 8 бит
    Тип развёртки : Прогрессивная
    Метод сжатия : С потерями
    Бит/(Пиксели*Кадры) : 0.210
    Размер потока : 457 Мбайт (84%)
    Библиотека кодирования : XviD 73
    Аудио #1
    Идентификатор : 1
    Формат : MPEG Audio
    Версия формата : Version 1
    Профиль формата : Layer 3
    Режим : Joint stereo
    Расширение режима : MS Stereo
    Идентификатор кодека : 55
    Идентификатор кодека/Подсказка : MP3
    Продолжительность : 43 м.
    Вид битрейта : Постоянный
    Битрейт : 128 Кбит/сек
    Каналы : 2 канала
    Частота : 48, 0 КГц
    Метод сжатия : С потерями
    Размер потока : 40, 2 Мбайт (7%)
    Выравнивание : Соединение по промежуткам
    Продолжительность промежутка : 42 мс. (1, 00 видеокадр)
    Время предзагрузки промежутка : 504 мс.
    Аудио #2
    Идентификатор : 2
    Формат : MPEG Audio
    Версия формата : Version 1
    Профиль формата : Layer 3
    Режим : Joint stereo
    Расширение режима : MS Stereo
    Идентификатор кодека : 55
    Идентификатор кодека/Подсказка : MP3
    Продолжительность : 43 м.
    Вид битрейта : Постоянный
    Битрейт : 128 Кбит/сек
    Каналы : 2 канала
    Частота : 48, 0 КГц
    Метод сжатия : С потерями
    Размер потока : 40, 2 Мбайт (7%)
    Выравнивание : Соединение по промежуткам
    Продолжительность промежутка : 42 мс. (1, 00 видеокадр)
    Время предзагрузки промежутка : 504 мс.
    Библиотека кодирования : LAME3.99.5ЄЄЄЄЄЄЄЄЄЄ


    Скриншоты для ознакомления




    Онлайн видео Остановись и гори



    Остановись и гори/Замри и гори/Halt and Catch Fire (2016) WEB-DLRip (сезон 3, серии 1 из 10) NewStudio (обновляемая)
    загрузка...
    Рейтинг →
     (голосов: 1, оценка 4/5, голосовать можно 1 раз )

    Другие торренты по теме:

  • Остановись и гори / Замри и гори / Halt and Catch Fire (2015) WEB-DL[H.264 / 720p-LQ] (сезон 2, серии 1 из 10) NewStudio (обновляемая) скачать через торрент бесплатно
  • Остановись и гори / Замри и гори / Halt and Catch Fire (2015) WEB-DL [H.264 / 1080p-LQ] (сезон 2, серии 1 из 10) NewStudio (обновляемая) скачать через торрент бесплатно
  • Остановись и гори / Замри и гори / Halt and Catch Fire (2015) WEB-DLRip (сезон 2, серии 1 из 10) NewStudio (обновляемая) скачать через торрент бесплатно
  • Остановись и гори / Halt and Catch Fire (2014) BDRip [H.265 / 1080p-LQ] (сезон 1, серии 1-10 из 10) [En / En sub]
  • Остановись и гори / Halt and Catch Fire (2015) WEB-DL [H.265 / 1080p-LQ] (сезон 2, серии 1-10 из 10) [En / En sub]
  • Остановись и гори / Halt and Catch Fire (2017) WEBRip [H.264 / 1080p-LQ] (сезон 4, серии 1-2 из 10) IdeaFilm (обновляемая) [AD]


    • Комментарии (0):

      Информация

      Информация

        Посетители, находящиеся в группе Гости, не могут оставлять комментарии в данной новости.

        ↓ Меню




        ↓ Опрос

        Вы добавили сайт в закладки?
        Да
        Нет


        Top 10 за месяц (Фильмы)