.
Авторизация | Регистрация
Хочешь лучшие торренты? Добавь свой email!
Добавить

Торрент скачать бесплатно

» » Острые козырьки / Peaky Blinders (2013-2016) BDRip [H.264] (сезон 1-3, серии 01-18 из 18) AlexFilm (обновляемая) торрент скачать бесплатно




    Острые козырьки / Peaky Blinders (2013-2016) BDRip [H.264] (сезон 1-3, серии 01-18 из 18) AlexFilm (обновляемая) торрент скачать бесплатно

    Опубликовал: Админ | Дата: 27-08-2016, 04:01 | Просмотров: 53

    Производство: Великобритания, Caryn Mandabach Productions, Tiger Aspect Productions, BBC
    Жанр: Драма, Криминал
    Режиссер: Отто Баферст, Том Харпер

    Актеры
    Киллиан Мёрфи, Сэм Нил, Хелен МакКрори, Аннабелль Уоллис, Иддо Голдберг, Пол Андерсон, Софи Рандл, Джо Коул, Чарли Крид-Майлз, Сэмюэл Эдвард-Кук и др.

    Описание

    Острые козырьки — гангстерская сага о группировке цыганских бандитов из Бирмингема, основанная на реальных событиях, в которой многолюдная семья Шелби стала одной из самых жестоких и влиятельных гангстерских банд послевоенного времени. Фирменным знаком группировки, промышлявшей грабежами и азартными играми, стали зашитые в козырьки лезвия.

    Возраст: 18+ (зрителям, достигшим 18 лет. запрещено для детей)
    Релиз от: mebf109
    Продолжительность: ~00: 55: 00 серия
    Качество видео: BDRip
    Перевод: Многоголосый закадровый, профессиональный - AlexFilm
    Внимание! Присутствуют откровенные сцены и обсценная лексика!
    Видео: AVC/H.264, 1024х552, ~2830 Kbps
    Аудио: AC3, 2 ch, 192 Kbps, CBR
    Код:

    General
    Unique ID : 186931108164446010540983748456711552048 (0x8CA19F33358AB947A6D8598645D17C30)
    Complete name : D:ПробаОстрые козырьки(Peaky Blinders)Peaky Blinders-1(2013)BDRip.by.mebf1091.P.B.-01(2013)BDRip.by.mebf109.mkv
    Format : Matroska
    Format version : Version 2
    File size : 1.20 GiB
    Duration : 56mn 59s
    Overall bit rate : 3 024 Kbps
    Encoded date : UTC 2016-08-08 20:20:56
    Writing application : mkvmerge v6.1.0 (\'Old Devil\') built on Mar 4 2013 09:10:42
    Writing library : libebml v1.3.0 + libmatroska v1.4.0
    Video
    ID : 1
    Format : AVC
    Format/Info : Advanced Video Codec
    Format profile :High@L4.1
    Format settings, CABAC : Yes
    Format settings, ReFrames : 7 frames
    Codec ID : V_MPEG4/ISO/AVC
    Duration : 56mn 59s
    Bit rate : 2 830 Kbps
    Width : 1 024 pixels
    Height : 552 pixels
    Display aspect ratio : 1.85:1
    Frame rate : 25.000 fps
    Color space : YUV
    Chroma subsampling : 4:2:0
    Bit depth : 8 bits
    Scan type : Progressive
    Bits/(Pixel*Frame) : 0.200
    Stream size : 1.10 GiB (92%)
    Writing library : x264 core 130 r2273 b3065e6
    Encoding settings : cabac=1/ref=7/deblock=1:0:0/analyse=0x3:0x133/me=umh/subme=10/psy=1/psy_rd=1.00:0.00/mixed_ref=1/me_range=32/chroma_me=1/trellis=2/8x8dct=1/cqm=0/deadzone=21, 11/fast_pskip=0/chroma_qp_offset=-2/threads=3/lookahead_threads=1/sliced_threads=0/nr=0/decimate=0/interlaced=0/bluray_compat=0/constrained_intra=0/bframes=3/b_pyramid=2/b_adapt=2/b_bias=0/direct=3/weightb=1/open_gop=0/weightp=2/keyint=250/keyint_min=25/scenecut=40/intra_refresh=0/rc_lookahead=60/rc=2pass/mbtree=1/bitrate=2830/ratetol=1.0/qcomp=0.60/qpmin=0/qpmax=69/qpstep=4/cplxblur=20.0/qblur=0.5/ip_ratio=1.40/aq=1:1.00
    Default : Yes
    Forced : No
    Audio
    ID : 2
    Format : AC-3
    Format/Info : Audio Coding 3
    Mode extension : CM (complete main)
    Format settings, Endianness : Big
    Codec ID : A_AC3
    Duration : 56mn 59s
    Bit rate mode : Constant
    Bit rate : 192 Kbps
    Channel(s) : 2 channels
    Channel positions : Front: L R
    Sampling rate : 48.0 KHz
    Bit depth : 16 bits
    Compression mode : Lossy
    Stream size : 78.3 MiB (6%)
    Default : Yes
    Forced : No


    Скриншоты для ознакомления




    Онлайн видео Острые козырьки



    Острые козырьки/Peaky Blinders (2013-2016) BDRip [H.264] (сезон 1-3, серии 01-18 из 18) AlexFilm (обновляемая)
    загрузка...
    Рейтинг →
     (голосов: 1, оценка 5/5, голосовать можно 1 раз )

    Другие торренты по теме:

  • Острые козырьки / Заточенные кепки / Peaky Blinders (2014) HDTVRip (сезон 2, серии 1 из 6) AlexFilm (обновляемая) скачать через торрент бесплатно
  • Острые козырьки / Заточенные кепки / Peaky Blinders (2014) HDTVRip (сезон 2, серии 1 из 6) LostFilm (обновляемая)
  • Острые козырьки / Заточенные кепки / Peaky Blinders (2014) HDTVRip (сезон 2, серии 1 из 6) BaibaKo (обновляемая)
  • Острые козырьки / Заточенные кепки / Peaky Blinders (2014) HDTVRip [H.264 / 720p-LQ] (сезон 2, серии 1-2 из 6) AlexFilm+Кубик в Кубе (обновляемая)
  • Острые козырьки / Peaky Blinders (2014) HDTVRip [H.264 / 1080p-LQ] (сезон 2, серии 1-6 из 6) LostFilm скачать через торрент бесплатно
  • Острые козырьки / Заточенные кепки / Peaky Blinders (2016) HDTVRip (сезон 3, серии 1 из 6) AlexFilm (обновляемая)
  • Острые козырьки / Заточенные кепки / Peaky Blinders (2016) HDTVRip (сезон 3, серии 1 из 6) LostFilm (обновляемая)
  • Острые козырьки / Peaky Blinders (2016) HDTVRip [H.264 / 720p-LQ] (сезон 3, серии 1 из 6) SunshineStudio (Обновляемая)


    • Комментарии (0):

      Информация

      Информация

        Посетители, находящиеся в группе Гости, не могут оставлять комментарии в данной новости.

        ↓ Меню




        ↓ Опрос

        Вы добавили сайт в закладки?
        Да
        Нет


        Top 10 за месяц (Фильмы)