.
Авторизация | Регистрация
Хочешь лучшие торренты? Добавь свой email!
Добавить

Торрент скачать бесплатно

» » Венская почтовая марка (1967) DVDRip торрент скачать бесплатно




    Венская почтовая марка (1967) DVDRip торрент скачать бесплатно

    Опубликовал: Админ | Дата: 24-08-2016, 04:00 | Просмотров: 49

    Производство: СССР, Таллинфильм
    Жанр: Комедия
    Режиссер: Вельё Кяспер

    Актеры
    Юри Ярвет, Эрвин Абель, Антс Йыги, Мати Клоорен, Эйнари Коппель, Владислав Коржец, Лейда Раммо, Альфред Ребане, Флёр Тоомла, Линда Тубин, Херта Эльвисте, Инес Паркер (Ару), Пауль Руубель, Андрес Сярев, Рейн Вахаро, Карл Калкун

    Описание

    Кинокомедия с социальным уклоном, поставленная по мотивам одноименной пьесы 1963 года, написанной эстонским драматургом Арди Лийвеса, который является и автором сценария фильма.Мартин Ролль, мастер на фабрике ящичной тары и страстный филателист, привык всегда и во всём подчиняться: дома - жене, на работе - начальству... О таком странном сюжете не догадывалась даже Светлана Лобода. Независимо от того, правы они или нет. Божий одуванчик, сказал кто то из толпы, к чему не понятно. Мартина печалит и раздражает такая жизнь, но ему не хватает мужества что-либо изменить. Но однажды его фронтовой друг Тынис Уппи заключает с Мартином пари на уникальную венскую почтовую марку. Суть пари заключается в том, что Ролль проведёт один день правды - день, когда он будет делать только то, что подсказывает ему совесть Этот день правды Мартина Ролля кардинально перевернул все заведенные порядки дома и многое изменил на работе...

    Релиз от: ФЕНИКС
    Продолжительность: 01: 18: 40
    Качество видео: DVDRip
    Видео: Xvid, 720x336, ~2562 Kbps
    Аудио1: AC3, 2 ch, 192 Kbps, CBR - русский
    Аудио2: AC3, 2 ch, 192 Kbps, CBR - эстонский
    Код:

    Общее
    Полное имя : Z:Венская почтовая маркаВенская почтовая марка (1967) DVDRip.avi
    Формат : AVI
    Формат/Информация : Audio Video Interleave
    Размер файла : 1, 63 Гбайт
    Продолжительность : 1 ч. 18 м.
    Общий поток : 2961 Кбит/сек
    Программа кодирования : VirtualDubMod 1.5.10.2 (build 2540/release)
    Библиотека кодирования : VirtualDubMod build 2540/release
    Видео
    Идентификатор : 0
    Формат : MPEG-4 Visual
    Профиль формата : Advanced Simple@L5
    Параметр BVOP формата : 2
    Параметр QPel формата : Нет
    Параметр GMC формата : Без точки перехода
    Параметр матрицы формата : Default (MPEG)
    Идентификатор кодека : XVID
    Идентификатор кодека/Подсказка : XviD
    Продолжительность : 1 ч. 18 м.
    Битрейт : 2562 Кбит/сек
    Ширина : 720 пикселей
    Высота : 336 пикселей
    Соотношение сторон : 2, 143
    Частота кадров : 25, 000 кадров/сек
    Цветовое пространство : YUV
    Субдискретизация насыщенности : 4:2:0
    Битовая глубина : 8 бит
    Тип развёртки : Прогрессивная
    Метод сжатия : С потерями
    Бит/(Пиксели*Кадры) : 0.424
    Размер потока : 1, 41 Гбайт (87%)
    Библиотека кодирования : XviD 73
    Аудио #1
    Идентификатор : 1
    Формат : AC-3
    Формат/Информация : Audio Coding 3
    Расширение режима : CM (complete main)
    Параметр Endianness формата : Big
    Идентификатор кодека : 2000
    Продолжительность : 1 ч. 18 м.
    Вид битрейта : Постоянный
    Битрейт : 192 Кбит/сек
    Каналы : 2 канала
    Расположение каналов : Front: L R
    Частота : 48, 0 КГц
    Частота кадров : 31, 250 кадров/сек (1536 spf)
    Метод сжатия : С потерями
    Размер потока : 108 Мбайт (6%)
    Выравнивание : Разделение по промежуткам
    Продолжительность промежутка : 40 мс. (1, 00 видеокадр)
    Время предзагрузки промежутка : 500 мс.
    Аудио #2
    Идентификатор : 2
    Формат : AC-3
    Формат/Информация : Audio Coding 3
    Расширение режима : CM (complete main)
    Параметр Endianness формата : Big
    Идентификатор кодека : 2000
    Продолжительность : 1 ч. 18 м.
    Вид битрейта : Постоянный
    Битрейт : 192 Кбит/сек
    Каналы : 2 канала
    Расположение каналов : Front: L R
    Частота : 48, 0 КГц
    Частота кадров : 31, 250 кадров/сек (1536 spf)
    Метод сжатия : С потерями
    Размер потока : 108 Мбайт (6%)
    Выравнивание : Разделение по промежуткам
    Продолжительность промежутка : 40 мс. (1, 00 видеокадр)
    Время предзагрузки промежутка : 500 мс.


    Скриншоты для ознакомления




    Венская почтовая марка (1967) DVDRip
    загрузка...
    Рейтинг →
     (голосов: 1, оценка 4/5, голосовать можно 1 раз )

    Другие торренты по теме:



      Комментарии (0):

      Информация

      Информация

        Посетители, находящиеся в группе Гости, не могут оставлять комментарии в данной новости.

        ↓ Меню




        ↓ Опрос

        Вы добавили сайт в закладки?
        Да
        Нет


        Top 10 за месяц (Фильмы)