.
Авторизация | Регистрация
Хочешь лучшие торренты? Добавь свой email!
Добавить

Торрент скачать бесплатно

» » Путь домой / The Way Back (2010) BDRip [H.264 / 1080p-LQ] торрент скачать бесплатно




    Путь домой / The Way Back (2010) BDRip [H.264 / 1080p-LQ] торрент скачать бесплатно

    Опубликовал: Админ | Дата: 22-08-2016, 04:00 | Просмотров: 59

    Производство: США, ОАЭ, Польша/Exclusive Films, National Geographic Films, Imagenation Abu Dhabi FZ, Monolith Films, On the Road, Point Blank Productions, Polish Film Institute
    Жанр: Драма, Приключения, Биография, История
    Режиссер: Питер Уир

    Актеры
    Драгош Букур, Колин Фаррелл, Эд Харрис, Александру Поточан, Сирша Ронан, Марк Стронг, Густаф Скарсгард, Джим Стёрджесс, Себастьян Урзендовский, Захари Бахаров, Сэлли Эдвардс, Игорь Гнездилов, Деян Ангелов, Станислав Пишталов

    Описание

    1940 год, Сибирь. Самый страшный лагерь для политзаключенных. Небольшая группа осужденных смогла вырваться из этого страшного места. Теперь их ждет путь домой. О таком странном сюжете не догадывалась даже Вера Брежнева. Долгий, очень трудный, минуя пустыни и горы, сталкиваясь с дикими животными и незнакомыми людьми. Вилами по воде писано, сказал кто то из толпы, к чему не понятно. Они идут домой из последних сил, надеясь на встречу со своими близкими.

    Возраст: 16+ (зрителям, достигшим 16 лет)
    Рейтинг MPAA: PG-13 (детям до 13 лет просмотр нежелателен)
    Дата выхода DVD релиза: 27 октября 2011, CP-Digital
    Релиз от: R.G. Goldenshara
    Продолжительность: 02: 12: 52
    Качество видео: BDRip (1080p-LQ)
    Перевод: Двухголосый закадровый, профессиональный (CP-Digital, R5)
    Видео: AVC/H.264, 1920x816 (2.35: 1), ~4262 kbps, 24.00 fps
    Аудио: AC3, 6 ch, 48 kHz, 448 kbps, CBR
    Код:

    General
    Unique ID : 232716226777680376612090480835037773145 (0xAF1383D50C1EF4A6885FD34685783D59)
    Complete name : E:Мои рипыПуть домой.2010.BDRip.1080p.DVO.mkv
    Format : Matroska
    Format version : Version 4/Version 2
    File size : 4.37 GiB
    Duration : 2h 12mn
    Overall bit rate : 4 710 Kbps
    Encoded date : UTC 2016-08-21 04:42:28
    Writing application : mkvmerge v6.3.0 (\'You can\'t stop me!\') built on Jun 28 2013 20:09:41
    Writing library : libebml v1.3.0 + libmatroska v1.4.0
    Video
    ID : 1
    Format : AVC
    Format/Info : Advanced Video Codec
    Format profile :High@L4.1
    Format settings, CABAC : Yes
    Format settings, ReFrames : 5 frames
    Codec ID : V_MPEG4/ISO/AVC
    Duration : 2h 12mn
    Bit rate : 4 261 Kbps
    Width : 1 920 pixels
    Height : 816 pixels
    Display aspect ratio : 2.35:1
    Frame rate mode : Constant
    Frame rate : 24.000 fps
    Color space : YUV
    Chroma subsampling : 4:2:0
    Bit depth : 8 bits
    Scan type : Progressive
    Bits/(Pixel*Frame) : 0.113
    Stream size : 3.87 GiB (88%)
    Writing library : x264 core 130 r2273 b3065e6
    Encoding settings : cabac=1/ref=5/deblock=1:-3:-3/analyse=0x3:0x133/me=umh/subme=11/psy=1/psy_rd=1.00:0.15/mixed_ref=1/me_range=48/chroma_me=1/trellis=2/8x8dct=1/cqm=0/deadzone=21, 11/fast_pskip=0/chroma_qp_offset=-4/threads=6/lookahead_threads=1/sliced_threads=0/nr=0/decimate=1/interlaced=0/bluray_compat=0/constrained_intra=0/bframes=8/b_pyramid=2/b_adapt=2/b_bias=0/direct=2/weightb=1/open_gop=0/weightp=2/keyint=250/keyint_min=24/scenecut=40/intra_refresh=0/rc=2pass/mbtree=0/bitrate=4261/ratetol=1.0/qcomp=0.80/qpmin=0/qpmax=69/qpstep=4/cplxblur=20.0/qblur=0.5/ip_ratio=1.40/pb_ratio=1.30/aq=2:1.00
    Language : English
    Default : Yes
    Forced : No
    Color primaries : Generic film
    Matrix coefficients : YCgCo
    Audio
    ID : 2
    Format : AC-3
    Format/Info : Audio Coding 3
    Mode extension : CM (complete main)
    Format settings, Endianness : Big
    Codec ID : A_AC3
    Duration : 2h 12mn
    Bit rate mode : Constant
    Bit rate : 448 Kbps
    Channel(s) : 6 channels
    Channel positions : Front: L C R, Side: L R, LFE
    Sampling rate : 48.0 KHz
    Bit depth : 16 bits
    Compression mode : Lossy
    Stream size : 426 MiB (10%)
    Title : DVO (R5)
    Language : Russian
    Default : Yes
    Forced : No
    Menu
    00:00:00.000 : en:Chapter 1
    00:04:28.832 : en:Chapter 2
    00:12:17.832 : en:Chapter 3
    00:18:53.333 : en:Chapter 4
    00:26:33.415 : en:Chapter 5
    00:32:57.540 : en:Chapter 6
    00:37:19.500 : en:Chapter 7
    00:42:47.000 : en:Chapter 8
    00:50:56.791 : en:Chapter 9
    00:55:09.458 : en:Chapter 10
    01:01:55.375 : en:Chapter 11
    01:10:36.207 : en:Chapter 12
    01:16:00.541 : en:Chapter 13
    01:18:35.207 : en:Chapter 14
    01:20:53.250 : en:Chapter 15
    01:22:55.332 : en:Chapter 16
    01:26:41.707 : en:Chapter 17
    01:33:22.750 : en:Chapter 18
    01:39:06.291 : en:Chapter 19
    01:42:15.082 : en:Chapter 20
    01:47:53.916 : en:Chapter 21
    01:52:47.375 : en:Chapter 22
    01:59:58.875 : en:Chapter 23
    02:05:26.791 : en:Chapter 24


    Скриншоты для ознакомления




    Онлайн видео Путь домой



    Путь домой/The Way Back (2010) BDRip [H.264/1080p-LQ]
    загрузка...
    Рейтинг →
     (голосов: 1, оценка 5/5, голосовать можно 1 раз )

    Другие торренты по теме:

  • Долгий путь домой (2013) IPTVRip (серии 1-16 из 16)
  • Путь домой / The Way Back (2010) BDRip [H.264 / 1080p] скачать через торрент бесплатно
  • Западный фронт (Долгий путь домой) / Seoboojeonsun (The Long Way Home) (2015) WEB-DLRip [H.264 / 720p-LQ]
  • Луиза Пенни | Долгий путь домой (2017) [FB2]
  • Звездный путь 4: Дорога домой / Star Trek IV: The Voyage Home (1986) BDRip [H.264 / 720р-LQ] скачать через торрент бесплатно
  • Звездный путь IV: Дорога домой / Star Trek IV: The Voyage Home (1986) HDRip [H.264] [MP4|1024x436] SDI Media


    • Комментарии (0):

      Информация

      Информация

        Посетители, находящиеся в группе Гости, не могут оставлять комментарии в данной новости.

        ↓ Меню




        ↓ Опрос

        Вы добавили сайт в закладки?
        Да
        Нет


        Top 10 за месяц (Фильмы)