.
Авторизация | Регистрация
Хочешь лучшие торренты? Добавь свой email!
Добавить

Торрент скачать бесплатно

» » 13 часов: Тайные солдаты Бенгази / 13 Hours (2016) DVD9 торрент скачать бесплатно




    13 часов: Тайные солдаты Бенгази / 13 Hours (2016) DVD9 торрент скачать бесплатно

    Опубликовал: Админ | Дата: 22-08-2016, 04:00 | Просмотров: 27

    Производство: США/Paramount Pictures, 3 Arts Entertainment, Bay Films, Dune Films, Latina Pictures
    Жанр: Боевик, триллер, драма, военный
    Режиссер: Майкл Бэй
    Продюсеры: Майкл Бэй, Эрвин Стофф, Ричард Эбейт

    Актеры
    Джон Красински, Джеймс Бэдж Дэйл, Пабло Шрайбер, Дэвид Денман, Доминик Фумуса, Макс Мартини, Алексия Бальер, Дэвид Костабайл, Пейман Моаади, Мэтт Летчер

    Описание

    2012 год. Бенгази, Ливия. Группа террористов решает отпраздновать события 11 сентября нападением на американское посольство. Шестерке бойцов из элитного спецотряда приказано вмешаться только в крайнем случае. Вилами по воде писано, сказал кто то из толпы, к чему не понятно. Но когда под угрозой десятки жизней, долг и совесть берут верх над субординацией. И мужественные солдаты без колебаний вступают в бой с яростной группировкой боевиков. О таком странном сюжете не догадывалась даже Бейонсе. Бой, который для всех шестерых, скорее всего, станет последним.

    Возраст: 18+ (зрителям, достигшим 18 лет. запрещено для детей)
    Рейтинг MPAA: R (лицам до 17 лет обязательно присутствие взрослого)
    Дата мировой премьеры: 12 января 2016
    Дата российской премьеры: 28 января 2016, Централ Партнершип
    Дата выхода DVD релиза: 12 июля 2016, Новый Диск

    Продолжительность: 02: 18: 32
    Качество видео: DVD9 R5
    Перевод: Дублированный (лицензия)
    Субтитры: Вшитые отключаемые
    Язык субтитров: Английский, русский, украинский
    Доп. О таком странном сюжете не догадывалась даже Бейонсе. материалы: Отсутствуют
    Видео: MPEG-2, 720x576@1024x576 (PAL 16: 9), ~5700 Kbps
    Аудио 1: AC3 5.1, 448 Kbps (Английский - оригинал)
    Аудио 2: AC3 5.1, 448 Kbps (Русский - дублированный)
    Аудио 3: AC3 5.1, 448 Kbps (Украинский - дублированный)
    Код:
    Title: 13 Hours (2016) DVD9 R5
    Size: 6.93 Gb ( 7 264 052, 00 KBytes ) - DVD-9
    Enabled regions: 1, 2, 3, 4, 5, 6, 7, 8
    VTS_01 :
    Play Length: 00:00:00
    Video: PAL 16:9 (720x576) VBR, Auto Letterboxed
    Audio:
    Not specified (Dolby AC3, 2 ch)
    Not specified (Dolby AC3, 2 ch)
    Not specified (Dolby AC3, 2 ch)
    Not specified (Dolby AC3, 2 ch)
    Not specified (Dolby AC3, 2 ch)
    Not specified (Dolby AC3, 2 ch)
    Not specified (Dolby AC3, 2 ch)
    Not specified (Dolby AC3, 2 ch)
    Subtitles:
    Not specified
    Not specified
    Not specified
    Not specified
    Not specified
    Not specified
    Not specified
    Not specified
    Not specified
    Not specified
    Not specified
    Not specified
    Not specified
    Not specified
    Not specified
    Not specified
    Not specified
    Not specified
    VTS_02 :
    Play Length: 00:00:00+{00:00:00}+{00:00:00}+{00:00:00}
    Video: PAL 16:9 (720x576) VBR, Auto Letterboxed
    VTS_03 :
    Play Length: 00:00:00+{00:00:00}
    Video: PAL 16:9 (720x576) VBR, Auto Letterboxed
    VTS_04 :
    Play Length: 00:00:00+{00:00:00}+{00:00:00}
    Video: PAL 16:9 (720x576) VBR, Auto Letterboxed
    VTS_05 :
    Play Length: 00:00:00+{00:00:00}+{00:00:00}+{00:00:00}
    Video: PAL 16:9 (720x576) VBR, Auto Letterboxed
    VTS_06 :
    Play Length: 00:00:00+{00:00:00}
    Video: PAL 16:9 (720x576) VBR, Auto Letterboxed
    VTS_07 :
    Play Length: 02:18:32+00:00:10+00:00:15+00:00:00
    Video: PAL 16:9 (720x576) VBR, Auto Letterboxed
    Audio:
    English (Dolby AC3, 6 ch)
    Russian (Dolby AC3, 6 ch)
    Ukrainian (Dolby AC3, 6 ch)
    Subtitles:
    English
    Russian
    Ukrainian
    Russian
    Ukrainian
    * Menus Information *
    VIDEO_TS Menu
    Video:
    PAL 16:9 (720x576) VBR
    Auto PanScan
    English Language Unit :
    Title Menu
    VTS_01 Menu
    Video:
    PAL 16:9 (720x576) VBR
    Auto PanScan
    English Language Unit :
    Root Menu
    VTS_02 Menu
    Video:
    PAL 4:3 (720x576) VBR
    Auto PanScan, Auto Letterboxed
    English Language Unit :
    Root Menu
    Subpicture Menu
    Audio Menu
    Angle menu
    Chapter (PTT) Menu
    VTS_03 Menu
    Video:
    PAL 16:9 (720x576) VBR
    Auto PanScan
    Audio:
    Not specified (Dolby AC3, 2 ch)
    English Language Unit :
    Root Menu
    Audio Menu
    Angle menu
    VTS_04 Menu
    Video:
    PAL 16:9 (720x576) VBR
    Auto PanScan
    English Language Unit :
    Root Menu
    Angle menu
    VTS_05 Menu
    Video:
    PAL 4:3 (720x576) VBR
    Auto PanScan, Auto Letterboxed
    English Language Unit :
    Root Menu
    VTS_06 Menu
    Video:
    PAL 4:3 (720x576) VBR
    Auto PanScan, Auto Letterboxed
    English Language Unit :
    Root Menu
    VTS_07 Menu
    Video:
    PAL 16:9 (720x576) VBR
    Auto PanScan
    Audio:
    Not specified (Dolby AC3, 2 ch)
    English Language Unit :
    Root Menu
    Subpicture Menu
    Audio Menu
    Angle menu
    Chapter (PTT) Menu
    Код:
    Общее
    Полное имя : F:Видео13 Hours (2016) DVD9 R5VIDEO_TSVTS_07_3.VOB
    Формат : MPEG-PS
    Размер файла : 1024 Мбайт
    Продолжительность : 19 м.
    Режим общего битрейта : Переменный
    Общий поток : 7193 Кбит/сек
    Видео
    Идентификатор : 224 (0xE0)
    Формат : MPEG Video
    Версия формата : Version 2
    Профиль формата : Main@Main
    Параметр BVOP формата : Да
    Параметр матрицы формата : Выборочная
    Параметр GOP формата : Variable
    Продолжительность : 19 м.
    Вид битрейта : Переменный
    Битрейт : 5706 Кбит/сек
    Максимальный битрейт : 9800 Кбит/сек
    Ширина : 720 пикселей
    Высота : 576 пикселей
    Соотношение сторон : 16:9
    Частота кадров : 25, 000 кадров/сек
    Стандарт вещания : Component
    Цветовое пространство : YUV
    Субдискретизация насыщенности : 4:2:0
    Битовая глубина : 8 бит
    Тип развёртки : Прогрессивная
    Порядок развёртки : Верхнее поле первое
    Метод сжатия : С потерями
    Бит/(Пиксели*Кадры) : 0.550
    Временной код первого кадра : 01:40:20:03
    Оригинал временного кода : Group of pictures t_head
    Размер потока : 812 Мбайт (79%)
    Основные цвета : BT.601 PAL
    Характеристики трансфера : BT.470 System B, BT.470 System G
    Коэффициенты матрицы : BT.601
    Аудио #1
    Идентификатор : 189 (0xBD)-128 (0x80)
    Формат : AC-3
    Формат/Информация : Audio Coding 3
    Расширение режима : CM (complete main)
    Параметр Endianness формата : Big
    Режим смешивания : DVD-Video
    Продолжительность : 19 м.
    Вид битрейта : Постоянный
    Битрейт : 448 Кбит/сек
    Каналы : 6 каналов
    Расположение каналов : Front: L C R, Side: L R, LFE
    Частота : 48, 0 КГц
    Частота кадров : 31, 250 кадров/сек (1536 spf)
    Метод сжатия : С потерями
    Задержка видео : -560 мс.
    Размер потока : 63, 8 Мбайт (6%)
    Аудио #2
    Идентификатор : 189 (0xBD)-129 (0x81)
    Формат : AC-3
    Формат/Информация : Audio Coding 3
    Расширение режима : CM (complete main)
    Параметр Endianness формата : Big
    Режим смешивания : DVD-Video
    Продолжительность : 19 м.
    Вид битрейта : Постоянный
    Битрейт : 448 Кбит/сек
    Каналы : 6 каналов
    Расположение каналов : Front: L C R, Side: L R, LFE
    Частота : 48, 0 КГц
    Частота кадров : 31, 250 кадров/сек (1536 spf)
    Метод сжатия : С потерями
    Задержка видео : -560 мс.
    Размер потока : 63, 8 Мбайт (6%)
    Аудио #3
    Идентификатор : 189 (0xBD)-130 (0x82)
    Формат : AC-3
    Формат/Информация : Audio Coding 3
    Расширение режима : CM (complete main)
    Параметр Endianness формата : Big
    Режим смешивания : DVD-Video
    Продолжительность : 19 м.
    Вид битрейта : Постоянный
    Битрейт : 448 Кбит/сек
    Каналы : 6 каналов
    Расположение каналов : Front: L C R, Side: L R, LFE
    Частота : 48, 0 КГц
    Частота кадров : 31, 250 кадров/сек (1536 spf)
    Метод сжатия : С потерями
    Задержка видео : -560 мс.
    Размер потока : 63, 8 Мбайт (6%)
    Текст #1
    Идентификатор : 189 (0xBD)-32 (0x20)
    Формат : RLE
    Формат/Информация : Run-length encoding
    Режим смешивания : DVD-Video
    Текст #2
    Идентификатор : 189 (0xBD)-33 (0x21)
    Формат : RLE
    Формат/Информация : Run-length encoding
    Режим смешивания : DVD-Video
    Текст #3
    Идентификатор : 189 (0xBD)-34 (0x22)
    Формат : RLE
    Формат/Информация : Run-length encoding
    Режим смешивания : DVD-Video
    Текст #4
    Идентификатор : 189 (0xBD)-35 (0x23)
    Формат : RLE
    Формат/Информация : Run-length encoding
    Режим смешивания : DVD-Video
    Текст #5
    Идентификатор : 189 (0xBD)-36 (0x24)
    Формат : RLE
    Формат/Информация : Run-length encoding
    Режим смешивания : DVD-Video
    Текст #6
    Идентификатор : 189 (0xBD)-37 (0x25)
    Формат : RLE
    Формат/Информация : Run-length encoding
    Режим смешивания : DVD-Video
    Меню


    Скриншоты для ознакомления




    Онлайн видео 13 часов: Тайные солдаты Бенгази



    13 часов: Тайные солдаты Бенгази/13 Hours (2016) DVD9
    загрузка...
    Рейтинг →
     (голосов: 1, оценка 3/5, голосовать можно 1 раз )

    Другие торренты по теме:

  • 13 часов: Тайные солдаты Бенгази / 13 Hours: The Secret Soldiers of Benghaz (2016) CamRip
  • 13 часов: Тайные солдаты Бенгази / 13 Hours: The Secret Soldiers of Benghazi (2016) CamRip
  • 13 часов: Тайные солдаты Бенгази / 13 Hours: The Secret Soldiers of Benghazi (2016) WEB-DL [H.264 / 720p-LQ] [EN / EN Sub]
  • 13 часов: Тайные солдаты Бенгази / 13 Hours: The Secret Soldiers of Benghazi (2016) BDRip [H.264 / 1080p] [EN / EN Sub]
  • 13 часов: Тайные солдаты Бенгази / 13 Hours: The Secret Soldiers of Benghazi (2016) BDRip [H.264 / 720p] [EN]
  • 13 часов: Тайные солдаты Бенгази / 13 Hours: The Secret Soldiers of Benghazi (2016) BDRip [H.264 / 1080p] [Line]
  • 13 часов: Тайные солдаты Бенгази / 13 Hours: The Secret Soldiers of Benghazi (2016) BDRemux [H.264 / 1080p] [EN / EN, Fr, Sp, Po Sub]
  • 13 часов: Тайные солдаты Бенгази / 13 Hours: The Secret Soldiers of Benghazi (2016) AC3 5.1 [hand made]


    • Комментарии (0):

      Информация

      Информация

        Посетители, находящиеся в группе Гости, не могут оставлять комментарии в данной новости.

        ↓ Меню




        ↓ Опрос

        Вы добавили сайт в закладки?
        Да
        Нет


        Top 10 за месяц (Фильмы)