.
Авторизация | Регистрация
Хочешь лучшие торренты? Добавь свой email!
Добавить

Торрент скачать бесплатно

» » Случай в Кеттеринге / Трагедия в Кеттеринге / The Kettering Incident (2016) WEBRip (сезон 1, серии 1-7 из 8) HamsterStudio (обновляемая) торрент скачать бесплатно




    Случай в Кеттеринге / Трагедия в Кеттеринге / The Kettering Incident (2016) WEBRip (сезон 1, серии 1-7 из 8) HamsterStudio (обновляемая) торрент скачать бесплатно

    Опубликовал: Админ | Дата: 22-08-2016, 04:00 | Просмотров: 54

    Производство: Австралия/Porchlight Films, Sweet Potato Films
    Жанр: триллер, драма, криминал, детектив
    Режиссер: Роуэн Вудс, Тони Кравиц

    Актеры
    Элизабет Дебики, Мэттью Ле Невез, Генри Никсон, Элисон Уайт, Нил Пигот, Энтони Фелан, Дэймон Гамо, Дэмиен Гарви, Саша Хорлер, Брэд Каннегиссер и др.

    Описание

    Эта история окутана тайнами с самых первых минут. Во главе сюжета - молодая и амбициозная Анна Мейси. Когда-то в возрасте четырнадцати лет она пережила трагедию и теперь ей лицом к лицу предстоит столкнуться с призраками из прошлого и попытаться не только разобраться с тайнами, что казалось бы преследуют ее с тех пор, но и отчаянно попытаться выжить в родном Кеттеринге.

    Дата мировой премьеры: 4 июля 2016
    Продолжительность: ~00: 52: 00 серия
    Качество видео: WEBRip
    Перевод: Двухголосый закадровый, профессиональный -HamsterStudio
    Вид субтитров: отдельным файлом
    Язык субтитров: русский
    Видео: XviD, 720x384, ~1500 kbps
    Аудио Rus: MP3, 48, 0 kHz, 2 ch, 128 kbps — двухголосый закадровый
    Аудио Eng: MP3, 48, 0 kHz, 2 ch, 128 kbps — оригинал
    Код:

    Общее
    Полное имя : D:Случай в Кеттеринге (сезон любимого сериала 1) The Kettering Incident (2016) WEBRip - HamsterStudioThe Kettering Incident.S01E03.WEBRip.Rus.Eng.DV.HamsterStudio.avi
    Формат : AVI
    Формат/Информация : Audio Video Interleave
    Размер файла : 659 Мбайт
    Продолжительность : 51 м.
    Общий поток : 1788 Кбит/сек
    Название фильма : The Kettering Incident.S01E03.WEBRip.Rus.Eng.DV.HamsterStudio/NNM-Club
    Программа кодирования : VirtualDubModRus 1.5.10.2 (build 2542/release)
    Библиотека кодирования : VirtualDubMod build 2542/release
    Видео
    Идентификатор : 0
    Формат : MPEG-4 Visual
    Профиль формата : Advanced Simple@L5
    Параметр BVOP формата : 2
    Параметр QPel формата : Нет
    Параметр GMC формата : Без точки перехода
    Параметр матрицы формата : Default (H.263)
    Идентификатор кодека : XVID
    Идентификатор кодека/Подсказка : XviD
    Продолжительность : 51 м.
    Битрейт : 1518 Кбит/сек
    Ширина : 720 пикселей
    Высота : 384 пикселя
    Соотношение сторон : 1, 85:1
    Частота кадров : 25, 000 кадров/сек
    Цветовое пространство : YUV
    Субдискретизация насыщенности : 4:2:0
    Битовая глубина : 8 бит
    Тип развёртки : Прогрессивная
    Метод сжатия : С потерями
    Бит/(Пиксели*Кадры) : 0.220
    Размер потока : 559 Мбайт (85%)
    Заголовок : Rip by DriverV/NNM-Club
    Библиотека кодирования : XviD 64
    Аудио #1
    Идентификатор : 1
    Формат : MPEG Audio
    Версия формата : Version 1
    Профиль формата : Layer 3
    Режим : Joint stereo
    Идентификатор кодека : 55
    Идентификатор кодека/Подсказка : MP3
    Продолжительность : 51 м.
    Вид битрейта : Постоянный
    Битрейт : 128 Кбит/сек
    Каналы : 2 канала
    Частота : 48, 0 КГц
    Метод сжатия : С потерями
    Размер потока : 47, 2 Мбайт (7%)
    Выравнивание : Соединение по промежуткам
    Продолжительность промежутка : 40 мс. (1, 00 видеокадр)
    Время предзагрузки промежутка : 504 мс.
    Аудио #2
    Идентификатор : 2
    Формат : MPEG Audio
    Версия формата : Version 1
    Профиль формата : Layer 3
    Режим : Joint stereo
    Расширение режима : MS Stereo
    Идентификатор кодека : 55
    Идентификатор кодека/Подсказка : MP3
    Продолжительность : 51 м.
    Вид битрейта : Постоянный
    Битрейт : 128 Кбит/сек
    Каналы : 2 канала
    Частота : 48, 0 КГц
    Метод сжатия : С потерями
    Размер потока : 47, 2 Мбайт (7%)
    Выравнивание : Соединение по промежуткам
    Продолжительность промежутка : 40 мс. (1, 00 видеокадр)
    Время предзагрузки промежутка : 504 мс.


    Скриншоты для ознакомления




    Онлайн видео Случай в Кеттеринге



    Случай в Кеттеринге/Трагедия в Кеттеринге/The Kettering Incident (2016) WEBRip (сезон 1, серии 1-7 из 8) HamsterStudio (обновляемая)
    загрузка...
    Рейтинг →
     (голосов: 1, оценка 5/5, голосовать можно 1 раз )

    Другие торренты по теме:

  • Тяжелый случай / Hard Luck (2006) BDRip [H.264] скачать через торрент бесплатно
  • Несчастный случай - Тоннель в конце света (2010) / 2012, МируМир / [FLAC|Lossless]<Rock>
  • Чарлз Диккенс | Превосходный случай (2015) [MP3] скачать через торрент бесплатно
  • Книжная серия | Счастливый случай [91 книга] (1996-2004) [FB2] скачать через торрент бесплатно
  • Несчастный случай - Легенды русского рока (2004) [FLAC|tracks+.cue]<Рок> скачать через торрент бесплатно
  • Андрей Ветер, Валерий Стрелецкий | Случай в Кропоткинском переулке. (2015) [MP3] скачать через торрент бесплатно
  • Эрих Фромм | Адольф Гитлер: клинический случай некрофилии (1992) [FB2] скачать через торрент бесплатно
  • Квартирник у Маргулиса - Несчастный Случай (2015) DVBRip скачать через торрент бесплатно


    • Комментарии (0):

      Информация

      Информация

        Посетители, находящиеся в группе Гости, не могут оставлять комментарии в данной новости.

        ↓ Меню




        ↓ Опрос

        Вы добавили сайт в закладки?
        Да
        Нет


        Top 10 за месяц (Фильмы)