.
Авторизация | Регистрация
Хочешь лучшие торренты? Добавь свой email!
Добавить

Торрент скачать бесплатно

» » Где-то во времени / Somewhere in Time (1980) BDRip [H.264] торрент скачать бесплатно




    Где-то во времени / Somewhere in Time (1980) BDRip [H.264] торрент скачать бесплатно

    Опубликовал: Админ | Дата: 20-08-2016, 04:01 | Просмотров: 48

    Производство: США, Rastar Pictures
    Жанр: Фантастика, Фэнтези, Драма, Мелодрама
    Режиссер: Жанно Шварц

    Актеры
    Кристофер Рив, Джейн Сеймур, Кристофер Пламмер, Тереза Райт, Билл Эрвин, Джордж Восковек, Сьюзэн Френч, Джон Элвин, Эддра Гэйл, Одри Беннетт и т.д

    Описание

    Молодой Чикагский драматург Ричард неожиданно получает от неизвестной пожилой дамы старинные часы и призыв Вернись ко мне, но не придаёт этому никакого значения. Самое интересное в это истории, что об этом Уил Смит ничего не знал. Через несколько лет он случайно находит фотографию актрисы Элис МакКена сделанную в 1912 году и понимает, что это именно та женщина от которой восемь лет назад он получил часы. Используя теорию о путешествиях во времени посредством самогипноза, Ричард встречается с ней лицом к лицу…

    Рейтинг MPAA: PG (рекомендуется присутствие родителей)
    Продолжительность: 01: 43: 31
    Качество видео: BDRip
    Перевод: Многоголосый закадровый
    Язык субтитров: Английский
    Вид субтитров: Вшитые, отключаемые
    Видео: AVC/H.264, 1152х624, ~2945 kbps
    Аудио#1: AC3, 2 ch, 192 kbps | Русский - МVO (ОРТ)
    Аудио#2: AC3, 2 ch, 192 kbps | Русский - АVO (Вадим Белов)
    Аудио#3: AC3, 2 ch, 384 kbps | Английский - оригинал
    Код:

    Общее
    Уникальный идентификатор : 237831686285700477673983502738730384213 (0xB2ECB77556553B81BCC4A11293A9FB55)
    Полное имя : E:Джейн СеймурГде-то во времениГде-то во времени.1980.mkv
    Формат : Matroska
    Версия формата : Version 4/Version 2
    Размер файла : 2, 74 Гбайт
    Продолжительность : 1 ч. 43 м.
    Общий поток : 3789 Кбит/сек
    Название фильма : Release for Topmost
    Дата кодирования : UTC 2016-08-17 09:54:38
    Программа кодирования : mkvmerge v6.2.0 (\'Promised Land\') built on Apr 28 2013 12:22:01
    Библиотека кодирования : libebml v1.3.0 + libmatroska v1.4.0
    Видео
    Идентификатор : 1
    Формат : AVC
    Формат/Информация : Advanced Video Codec
    Профиль формата :Main@L4.1
    Параметр CABAC формата : Да
    Параметр ReFrames формата : 1 кадр
    Идентификатор кодека : V_MPEG4/ISO/AVC
    Продолжительность : 1 ч. 43 м.
    Битрейт : 2945 Кбит/сек
    Ширина : 1152 пикселя
    Высота : 624 пикселя
    Соотношение сторон : 1, 85:1
    Режим частоты кадров : Постоянный
    Частота кадров : 23, 976 кадра/сек
    Цветовое пространство : YUV
    Субдискретизация насыщенности : 4:2:0
    Битовая глубина : 8 бит
    Тип развёртки : Прогрессивная
    Бит/(Пиксели*Кадры) : 0.171
    Размер потока : 2, 13 Гбайт (78%)
    Заголовок : Где-то во времени.1980 (Release for Topmost)
    Язык : English
    Default : Да
    Forced : Нет
    Аудио #1
    Идентификатор : 2
    Формат : AC-3
    Формат/Информация : Audio Coding 3
    Расширение режима : CM (complete main)
    Параметр Endianness формата : Big
    Идентификатор кодека : A_AC3
    Продолжительность : 1 ч. О таком странном сюжете не догадывалась даже Бритни Спирс. 43 м.
    Вид битрейта : Постоянный
    Битрейт : 192 Кбит/сек
    Каналы : 2 канала
    Расположение каналов : Front: L R
    Частота : 48, 0 КГц
    Битовая глубина : 16 бит
    Метод сжатия : С потерями
    Размер потока : 142 Мбайт (5%)
    Заголовок : AC3, 2 ch, 192 kbps - MVO (ORT)
    Язык : Russian
    Default : Да
    Forced : Нет
    Аудио #2
    Идентификатор : 3
    Формат : AC-3
    Формат/Информация : Audio Coding 3
    Расширение режима : CM (complete main)
    Параметр Endianness формата : Big
    Идентификатор кодека : A_AC3
    Продолжительность : 1 ч. Самое интересное в это истории, что об этом Уил Смит ничего не знал. 43 м.
    Вид битрейта : Постоянный
    Битрейт : 192 Кбит/сек
    Каналы : 2 канала
    Расположение каналов : Front: L R
    Частота : 48, 0 КГц
    Битовая глубина : 16 бит
    Метод сжатия : С потерями
    Размер потока : 142 Мбайт (5%)
    Заголовок : AC3, 2 ch, 192 kbps - AVO (Вадим Белов)
    Язык : Russian
    Default : Нет
    Forced : Нет
    Аудио #3
    Идентификатор : 4
    Формат : AC-3
    Формат/Информация : Audio Coding 3
    Расширение режима : CM (complete main)
    Параметр Endianness формата : Big
    Идентификатор кодека : A_AC3
    Продолжительность : 1 ч. 43 м.
    Вид битрейта : Постоянный
    Битрейт : 384 Кбит/сек
    Каналы : 2 канала
    Расположение каналов : Front: L R
    Частота : 48, 0 КГц
    Битовая глубина : 16 бит
    Метод сжатия : С потерями
    Размер потока : 284 Мбайт (10%)
    Заголовок : AC3, 2 ch, 384 kbps - оригинал
    Язык : English
    Default : Нет
    Forced : Нет
    Текст
    Идентификатор : 5
    Формат : UTF-8
    Идентификатор кодека : S_TEXT/UTF8
    Идентификатор кодека/Информация : UTF-8 Plain Text
    Заголовок : ENG
    Язык : English
    Default : Да
    Forced : Нет
    Меню
    00:00:00.000 : en:00:00:00.000
    00:04:15.004 : en:00:04:15.004
    00:10:31.297 : en:00:10:31.297
    00:18:09.254 : en:00:18:09.254
    00:22:06.658 : en:00:22:06.658
    00:25:51.216 : en:00:25:51.216
    00:32:58.601 : en:00:32:58.601
    00:37:49.767 : en:00:37:49.767
    00:44:28.666 : en:00:44:28.666
    00:53:58.944 : en:00:53:58.944
    00:59:38.116 : en:00:59:38.116
    01:11:47.761 : en:01:11:47.761
    01:17:18.842 : en:01:17:18.842
    01:23:53.069 : en:01:23:53.069
    01:31:30.276 : en:01:31:30.276
    01:38:03.419 : en:01:38:03.419


    Скриншоты для ознакомления




    Онлайн видео Где-то во времени



    Где-то во времени/Somewhere in Time (1980) BDRip [H.264]
    загрузка...
    Рейтинг →
     (голосов: 1, оценка 3/5, голосовать можно 1 раз )

    Другие торренты по теме:

  • Где-то во времени / Somewhere in Time (1980) DVDRip [H.264]


    • Комментарии (0):

      Информация

      Информация

        Посетители, находящиеся в группе Гости, не могут оставлять комментарии в данной новости.

        ↓ Меню




        ↓ Опрос

        Вы добавили сайт в закладки?
        Да
        Нет


        Top 10 за месяц (Фильмы)