.
Авторизация | Регистрация
Хочешь лучшие торренты? Добавь свой email!
Добавить

Торрент скачать бесплатно

» » Полёт Белой стрелы / Белая стрела. Возмездие (2015) WEBRip (серии 1-12 из 12) торрент скачать бесплатно




    Полёт Белой стрелы / Белая стрела. Возмездие (2015) WEBRip (серии 1-12 из 12) торрент скачать бесплатно

    Опубликовал: Админ | Дата: 20-08-2016, 04:01 | Просмотров: 51

    Производство: Россия/Intra Communications по заказу 5-го канала
    Жанр: Детектив, Криминал
    Режиссер: Алексей Шикин, Александр Строев

    Актеры
    Сергей Маховиков, Александр Саюталин, Андрей Аверьянов, Владимир Маслаков, Егор Кутенков, Мария Жиганова, Евгений Ганелин, Ирина Обрезкова, Ирина Основина, Евгений Такс и др...

    Описание

    Валерий Блинов, Максим Сороколет, Слава Генералов и Павел Верба — настоящие мужчины, не в бронзе, но живые, чувствующие люди. Их умение чувствовать чужую боль превращает их в ангелов справедливого возмездия, в неотвратимую и безжалостную к негодяям карающую силу. Убийцы, насильники, наркоторговцы и бандиты — все получат по заслугам, или, как говорят сами герои: получат поделом.Преступники не обязательно будут ликвидированы физически, но в любом случае их жизни уже не будут безоблачными в своей безнаказанности, как прежде...

    Возраст: 16+ (зрителям, достигшим 16 лет)
    Продолжительность: ~ 00: 47: 00 серия
    Качество видео: WEBRip
    Видео: Xvid, 720x400 (16: 9), ~1936 Kbps
    Аудио: AC3, 2 ch, 192 kbps, CBR
    Код:

    Общее
    Полное имя : D:Мои фильмыBelaja_strela_Vozmezdie_1-12iz12_2015_XviD_WEBRip1.Депутат в законе.avi
    Формат : AVI
    Формат/Информация : Audio Video Interleave
    Размер файла : 746 Мбайт
    Продолжительность : 48 м.
    Общий поток : 2138 Кбит/сек
    Программа кодирования : VirtualDubMod 1.5.10.3 (build 2550/release)
    Библиотека кодирования : VirtualDub build 35491/release
    Видео
    Идентификатор : 0
    Формат : MPEG-4 Visual
    Профиль формата : Advanced Simple@L5
    Параметр BVOP формата : 2
    Параметр QPel формата : Нет
    Параметр GMC формата : Без точки перехода
    Параметр матрицы формата : Default (H.263)
    Идентификатор кодека : XVID
    Идентификатор кодека/Подсказка : XviD
    Продолжительность : 48 м.
    Битрейт : 1936 Кбит/сек
    Ширина : 720 пикселей
    Высота : 400 пикселей
    Соотношение сторон : 16:9
    Частота кадров : 25, 000 кадров/сек
    Цветовое пространство : YUV
    Субдискретизация насыщенности : 4:2:0
    Битовая глубина : 8 бит
    Тип развёртки : Прогрессивная
    Метод сжатия : С потерями
    Бит/(Пиксели*Кадры) : 0.269
    Размер потока : 675 Мбайт (91%)
    Библиотека кодирования : XviD 67
    Аудио
    Идентификатор : 1
    Формат : AC-3
    Формат/Информация : Audio Coding 3
    Расширение режима : CM (complete main)
    Параметр Endianness формата : Big
    Идентификатор кодека : 2000
    Продолжительность : 48 м.
    Вид битрейта : Постоянный
    Битрейт : 192 Кбит/сек
    Каналы : 2 канала
    Расположение каналов : Front: L R
    Частота : 48, 0 КГц
    Частота кадров : 31, 250 кадров/сек (1536 spf)
    Метод сжатия : С потерями
    Размер потока : 66, 9 Мбайт (9%)
    Выравнивание : Соединение по промежуткам
    Продолжительность промежутка : 40 мс. (1, 00 видеокадр)
    Время предзагрузки промежутка : 512 мс.


    Скриншоты для ознакомления




    Онлайн видео Полёт Белой стрелы



    Полёт Белой стрелы/Белая стрела. Возмездие (2015) WEBRip (серии 1-12 из 12)
    загрузка...
    Рейтинг →
     (голосов: 1, оценка 3/5, голосовать можно 1 раз )

    Другие торренты по теме:

  • Полёт Белой стрелы / Белая стрела. Возмездие (2015) SATRip (серии 1-6 из 12) (обновляемая) скачать через торрент бесплатно
  • Полёт Белой стрелы / Белая стрела. Возмездие (2015) SATRip [H.264] (1-9 серии из 12) (обновляемая) скачать через торрент бесплатно


    • Комментарии (0):

      Информация

      Информация

        Посетители, находящиеся в группе Гости, не могут оставлять комментарии в данной новости.

        ↓ Меню




        ↓ Опрос

        Вы добавили сайт в закладки?
        Да
        Нет


        Top 10 за месяц (Фильмы)