.
Авторизация | Регистрация
Хочешь лучшие торренты? Добавь свой email!
Добавить

Торрент скачать бесплатно

» » Такая работа (2015) WEBRip (сезон 2, серии 1-31 из 31) торрент скачать бесплатно




    Такая работа (2015) WEBRip (сезон 2, серии 1-31 из 31) торрент скачать бесплатно

    Опубликовал: Админ | Дата: 20-08-2016, 04:01 | Просмотров: 63

    Производство: Россия/Всемирные русские студии
    Жанр: Детектив, Криминал
    Режиссер: Владимир Койфман, Сергей Мезенцев

    Актеры
    Александр Саюталин, Оксана Базилевич, Дмитрий Паламарчук, Максим Меркулов, Алексей Митин, Ирина Шеянова, Александр Большаков, Сергей Кудрявцев, Антон Мамин, Елизавета Карнаух и др...

    Описание

    Команда молодых оперативников убойного отдела ГУВД — капитаны Филиппов, Лернер, Ильинский и старший лейтенант Стрельникова расследуют самые громкие преступления. Они молоды и амбициозны, и они сами выбрали ТАКУЮ РАБОТУ. Каждая серия — это новое дело, новый вызов и новая захватывающая история. Зрители проживут с героями сериала один год. Год, за который Филиппов, Лернер, Ильинский и Стрельникова превратятся из молодых оперативников в опытных профессионалов....

    Возраст: 16+ (зрителям, достигшим 16 лет)
    Продолжительность: ~ 00: 40: 00 серия
    Качество видео: WEBRip
    Видео: Xvid, 720x400 (16: 9), ~1365 Kbps
    Аудио: AC3, 2 ch, 192 kbps, CBR
    Код:

    Общее
    Полное имя : D:Мои фильмыTakaja_rabota_S2_1-31iz31_2015_XviD_WEBRip1.Взрывная волна.avi
    Формат : AVI
    Формат/Информация : Audio Video Interleave
    Размер файла : 445 Мбайт
    Продолжительность : 39 м.
    Общий поток : 1567 Кбит/сек
    Программа кодирования : VirtualDubMod 1.5.10.3 (build 2550/release)
    Библиотека кодирования : VirtualDub build 35491/release
    Видео
    Идентификатор : 0
    Формат : MPEG-4 Visual
    Профиль формата : Advanced Simple@L5
    Параметр BVOP формата : 2
    Параметр QPel формата : Нет
    Параметр GMC формата : Без точки перехода
    Параметр матрицы формата : Default (H.263)
    Идентификатор кодека : XVID
    Идентификатор кодека/Подсказка : XviD
    Продолжительность : 39 м.
    Битрейт : 1365 Кбит/сек
    Ширина : 720 пикселей
    Высота : 400 пикселей
    Соотношение сторон : 16:9
    Частота кадров : 25, 000 кадров/сек
    Цветовое пространство : YUV
    Субдискретизация насыщенности : 4:2:0
    Битовая глубина : 8 бит
    Тип развёртки : Прогрессивная
    Метод сжатия : С потерями
    Бит/(Пиксели*Кадры) : 0.190
    Размер потока : 388 Мбайт (87%)
    Библиотека кодирования : XviD 67
    Аудио
    Идентификатор : 1
    Формат : AC-3
    Формат/Информация : Audio Coding 3
    Расширение режима : CM (complete main)
    Параметр Endianness формата : Big
    Идентификатор кодека : 2000
    Продолжительность : 39 м.
    Вид битрейта : Постоянный
    Битрейт : 192 Кбит/сек
    Каналы : 2 канала
    Расположение каналов : Front: L R
    Частота : 44, 1 КГц
    Частота кадров : 28, 711 кадров/сек (1536 spf)
    Метод сжатия : С потерями
    Размер потока : 54, 5 Мбайт (12%)
    Выравнивание : Разделение по промежуткам
    Продолжительность промежутка : 40 мс. (1, 00 видеокадр)
    Время предзагрузки промежутка : 500 мс.


    Скриншоты для ознакомления




    Онлайн видео Такая работа (2015) WEBRip (сезон любимого сериала 2, серии 1



    Такая работа (2015) WEBRip (сезон 2, серии 1-31 из 31)
    загрузка...
    Рейтинг →
     (голосов: 1, оценка 4/5, голосовать можно 1 раз )

    Другие торренты по теме:

  • Такая работа (2015) WEB-DLRip (серия 1-5 из 80) (обновляемая) скачать через торрент бесплатно
  • Такая работа (2016) SATRip (2 сезон, 1-2 серия из ) (обновляемая)
  • Такая работа (2016) SATRip [H.264] (сезон 3, серии 1 из )
  • Такая работа (2016) WEBRip (сезон 3, серии 1-64 из 64)


    • Комментарии (0):

      Информация

      Информация

        Посетители, находящиеся в группе Гости, не могут оставлять комментарии в данной новости.

        ↓ Меню




        ↓ Опрос

        Вы добавили сайт в закладки?
        Да
        Нет


        Top 10 за месяц (Фильмы)