.
Авторизация | Регистрация
Хочешь лучшие торренты? Добавь свой email!
Добавить

Торрент скачать бесплатно

» » Бэтмен против Супермена: На заре справедливости / Batman v Superman: Dawn of Justice (2016) BDRip [H.265 / 1080p] [Расширенная версия] торрент скачать бесплатно




    Бэтмен против Супермена: На заре справедливости / Batman v Superman: Dawn of Justice (2016) BDRip [H.265 / 1080p] [Расширенная версия] торрент скачать бесплатно

    Опубликовал: Админ | Дата: 17-08-2016, 04:00 | Просмотров: 53

    Производство: США
    Жанр: Фантастика, Боевик, Приключения
    Режиссер: Зак Снайдер

    Актеры
    Генри Кавилл, Бен Аффлек, Галь Гадот, Эми Адамс, Джесси Айзенберг, Джереми Айронс, Дайан Лэйн, Лоренс Фишбёрн, Холли Хантер, Скут МакНэри

    Описание

    Опасаясь, что действия богоподобного супергероя так и останутся бесконтрольными, грозный и могущественный страж Готэм Сити бросает вызов самому почитаемому в наши дни спасителю Метрополиса, в то время как весь остальной мир решает, какой герой ему по-настоящему нужен. И пока Бэтмен и Супермен пребывают в состоянии войны друг с другом, возникает новая угроза, которая ставит человечество под самую большую опасность, с которой оно когда-либо сталкивалось.

    Возраст: 16+ (зрителям, достигшим 16 лет)
    Рейтинг MPAA: PG-13 (детям до 13 лет просмотр нежелателен)
    Дата мировой премьеры: 12 марта 2016
    Дата российской премьеры: 24 марта 2016
    Продолжительность: 03: 02: 34
    Качество видео: BDRip
    Перевод: Дублированный (вставки FocusStudio на расширенные места)
    Язык субтитров: Русские (форсированные, полные), Английские (полные, SDH)
    Вид субтитров: Вшитые отключаемые
    Видео: HEVC/H.265, 1920x800, ~9237 Kbps
    Аудио 1: AC3, 6 ch, 640 Kbps, CBR - Дублированный + FocusStudio
    Аудио 2: AC3, 6 ch, 640 Kbps, CBR - Английский, оригинал
    Код:

    General
    Unique ID : 247185864273925153696183687589489437507 (0xB9F6440A622AF7D296ED9B68FBAA6B43)
    Complete name : G:TorrentsБэтмен против Супермена. На заре справедливости (1080p) Extended Edition HEVC.mkv
    Format : Matroska
    Format version : Version 4/Version 2
    File size : 13.4 GiB
    Duration : 3h 2mn
    Overall bit rate : 10.5 Mbps
    Encoded date : UTC 2016-08-16 06:18:54
    Writing application : mkvmerge v9.2.0 (\'Photograph\') 64bit
    Writing library : libebml v1.3.3 + libmatroska v1.4.4
    Video
    ID : 1
    Format : HEVC
    Format/Info : High Efficiency Video Coding
    Format profile : Main@L4@Main
    Codec ID : V_MPEGH/ISO/HEVC
    Duration : 3h 2mn
    Bit rate : 9 235 Kbps
    Width : 1 920 pixels
    Height : 800 pixels
    Display aspect ratio : 2.40:1
    Frame rate mode : Constant
    Frame rate : 23.976 (24000/1001) fps
    Color space : YUV
    Chroma subsampling : 4:2:0
    Bit depth : 8 bits
    Bits/(Pixel*Frame) : 0.251
    Stream size : 11.8 GiB (88%)
    Writing library : x265 2.0+8-669dc9bfe7eb:[Windows][GCC 5.3.1][64 bit] 8bit
    Encoding settings : wpp/ctu=64/min-cu-size=8/max-tu-size=32/tu-intra-depth=1/tu-inter-depth=1/me=2/subme=5/merange=92/no-rect/no-amp/max-merge=4/temporal-mvp/no-early-skip/rskip/rdpenalty=0/no-tskip/no-tskip-fast/strong-intra-smoothing/no-lossless/no-cu-lossless/no-constrained-intra/no-fast-intra/open-gop/no-temporal-layers/interlace=0/keyint=250/min-keyint=23/scenecut=40/rc-lookahead=60/lookahead-slices=0/bframes=8/bframe-bias=0/b-adapt=2/ref=5/limit-refs=3/no-limit-modes/weightp/weightb/aq-mode=1/qg-size=64/aq-strength=1.00/cbqpoffs=0/crqpoffs=0/rd=3/psy-rd=2.00/rdoq-level=2/psy-rdoq=0.00/no-rd-refine/signhide/deblock=-3:-3/no-sao/no-sao-non-deblock/b-pyramid/no-cutree/no-intra-refresh/rc=2/pass/bitrate=9237/qcomp=0.50/qpmin=0/qpmax=69/qpstep=4/cplxblur=20.0/qblur=0.5/ipratio=1.10/pbratio=1.10
    Default : Yes
    Forced : No
    Audio #1
    ID : 2
    Format : AC-3
    Format/Info : Audio Coding 3
    Mode extension : CM (complete main)
    Format settings, Endianness : Big
    Codec ID : A_AC3
    Duration : 3h 2mn
    Bit rate mode : Constant
    Bit rate : 640 Kbps
    Channel(s) : 6 channels
    Channel positions : Front: L C R, Side: L R, LFE
    Sampling rate : 48.0 KHz
    Frame rate : 31.250 fps (1536 spf)
    Compression mode : Lossy
    Stream size : 836 MiB (6%)
    Title : Дублированный + FocusStudio
    Language : Russian
    Default : Yes
    Forced : No
    Audio #2
    ID : 3
    Format : AC-3
    Format/Info : Audio Coding 3
    Mode extension : CM (complete main)
    Format settings, Endianness : Big
    Codec ID : A_AC3
    Duration : 3h 2mn
    Bit rate mode : Constant
    Bit rate : 640 Kbps
    Channel(s) : 6 channels
    Channel positions : Front: L C R, Side: L R, LFE
    Sampling rate : 48.0 KHz
    Frame rate : 31.250 fps (1536 spf)
    Compression mode : Lossy
    Stream size : 836 MiB (6%)
    Language : English
    Default : No
    Forced : No
    Text #1
    ID : 4
    Format : UTF-8
    Codec ID : S_TEXT/UTF8
    Codec ID/Info : UTF-8 Plain Text
    Duration : 3h 1mn
    Bit rate : 4 bps
    Count of elements : 125
    Stream size : 6.13 KiB (0%)
    Title : Forced
    Language : Russian
    Default : Yes
    Forced : Yes
    Text #2
    ID : 5
    Format : UTF-8
    Codec ID : S_TEXT/UTF8
    Codec ID/Info : UTF-8 Plain Text
    Duration : 3h 2mn
    Bit rate : 64 bps
    Count of elements : 1634
    Stream size : 85.9 KiB (0%)
    Title : Full
    Language : Russian
    Default : No
    Forced : No
    Text #3
    ID : 6
    Format : UTF-8
    Codec ID : S_TEXT/UTF8
    Codec ID/Info : UTF-8 Plain Text
    Duration : 3h 2mn
    Bit rate : 37 bps
    Count of elements : 1537
    Stream size : 50.4 KiB (0%)
    Title : Full
    Language : English
    Default : No
    Forced : No
    Text #4
    ID : 7
    Format : UTF-8
    Codec ID : S_TEXT/UTF8
    Codec ID/Info : UTF-8 Plain Text
    Duration : 3h 2mn
    Bit rate : 43 bps
    Count of elements : 1912
    Stream size : 58.6 KiB (0%)
    Title : SDH
    Language : English
    Default : No
    Forced : No
    Menu
    00:00:00.000 : en:00:00:00.000
    00:10:10.652 : en:00:10:10.652
    00:27:00.661 : en:00:27:00.661
    00:37:49.225 : en:00:37:49.225
    00:46:54.520 : en:00:46:54.520
    01:02:04.971 : en:01:02:04.971
    01:14:10.613 : en:01:14:10.613
    01:28:07.115 : en:01:28:07.115
    01:41:46.642 : en:01:41:46.642
    01:53:52.617 : en:01:53:52.617
    02:02:58.079 : en:02:02:58.079
    02:15:04.054 : en:02:15:04.054
    02:27:55.075 : en:02:27:55.075
    02:36:51.444 : en:02:36:51.444
    02:48:27.514 : en:02:48:27.514
    02:54:43.765 : en:02:54:43.765


    Скриншоты для ознакомления




    Онлайн видео Бэтмен против Супермена: На заре справедливости



    Бэтмен против Супермена: На заре справедливости/Batman v Superman: Dawn of Justice (2016) BDRip [H.265/1080p] [Расширенная версия]
    загрузка...
    Рейтинг →
     (голосов: 1, оценка 4/5, голосовать можно 1 раз )

    Другие торренты по теме:

  • Бэтмен против Робина / Batman vs. Robin (2015) BDRip [720p] скачать через торрент бесплатно
  • Бэтмен против Робина / Batman vs. Robin (2015) BDRip [1080p] скачать через торрент бесплатно
  • Бэтмен против Супермена: На заре справедливости / Batman v Superman: Dawn of Justice (2016) WEBRip [1080р] [Трейлер] [EN] скачать через торрент бесплатно
  • Бэтмен против Супермена: На заре справедливости / Batman v Superman: Dawn of Justice (2016) WEBRip [1080р] [Трейлер] скачать через торрент бесплатно
  • Бэтмен против Супермена: На заре справедливости / Batman v Superman: Dawn of Justice (2016) DCPRip [2K] [Hi10P, Hi444PP] [Трейлер F1] скачать через торрент бесплатно
  • Бэтмен против Супермена: На заре справедливости / Batman v Superman: Dawn of Justice (2016) WEBRip [H.264 / 1080p] [Трейлер] [EN] скачать через торрент бесплатно
  • Бэтмен против Супермена: На заре справедливости / Batman v Superman: Dawn of Justice (2016) WEBRip [H.264 / 1080p] [Трейлер] скачать через торрент бесплатно
  • Бэтмен против Супермена: На заре справедливости / Batman v Superman: Dawn of Justice (2016) DCPRip [2K] [Hi10P, Hi444PP] [Трейлер F3] скачать через торрент бесплатно


    • Комментарии (0):

      Информация

      Информация

        Посетители, находящиеся в группе Гости, не могут оставлять комментарии в данной новости.

        ↓ Меню




        ↓ Опрос

        Вы добавили сайт в закладки?
        Да
        Нет


        Top 10 за месяц (Фильмы)