.
Авторизация | Регистрация
Хочешь лучшие торренты? Добавь свой email!
Добавить

Торрент скачать бесплатно

» » Будь красивой и молчи / Sois belle et tais-toi (1958) DVD5 торрент скачать бесплатно




    Будь красивой и молчи / Sois belle et tais-toi (1958) DVD5 торрент скачать бесплатно

    Опубликовал: Админ | Дата: 16-08-2016, 04:01 | Просмотров: 73

    Производство: Франция | Films EGE
    Жанр: Комедия
    Режиссер: Марк Аллегре

    Актеры
    Милен Демонжо, Анри Видаль, Ален Делон, Жан-Поль Бельмондо, Беатрис Альтариба, Дарри Коул, Рене Лефевр, Энн Коллетт, Робер Дальбан, Франсуа Дарбон

    Описание

    Если девушка хороша собой, обладает заводным характером и не имеет ни гроша за душой, ей не стоит искать приключений на свою голову. Но героине фильма не сиделось на месте, и теперь она удирает и от бандитов, и от полиции...

    Возраст: 12+ (зрителям достигшим 12 лет)
    Релиз от: maroder1 (NNM-CLUB)
    Продолжительность: 01: 35: 59
    Качество видео: DVD5
    Перевод: Многоголосый закадровый (ТВЦ)
    Субтитры: Нет
    Дополнительные материалы: Нет
    Видео: MPEG-2, PAL 4: 3 720x576@768x576 (4: 3), ~5865 Kbps, 25.00 fps
    Аудио#1: AC3, 2 ch, 192 Kbps | Русский
    Аудио#2: AC3, 2 ch, 192 Kbps | Французский
    Title:
    Size: 4.27 Gb ( 4 481 562 KBytes ) - DVD-5
    Enabled regions: 1, 2, 3, 4, 5, 6, 7, 8
    VTS_01 :
    Play Length: 01: 35: 59
    Video: PAL 4: 3 (720x576) VBR
    Audio:
    Russian (Dolby AC3, 2 ch)
    Francais (Dolby AC3, 2 ch)
    Код:

    Общее
    Полное имя : F:[NNMClub.to]_Sois.belle.et.tais.toi.1958.DVD5_maroder1VIDEO_TSVTS_01_1.VOB
    Формат : MPEG-PS
    Размер файла : 1024 Мбайт
    Продолжительность : 22 м.
    Режим общего битрейта : Переменный
    Общий поток : 6376 Кбит/сек
    Видео
    Идентификатор : 224 (0xE0)
    Формат : MPEG Video
    Версия формата : Version 2
    Профиль формата : Main@Main
    Параметр BVOP формата : Да
    Параметр матрицы формата : Выборочная
    Параметр GOP формата : M=3, N=12
    Продолжительность : 22 м.
    Вид битрейта : Переменный
    Битрейт : 5865 Кбит/сек
    Максимальный битрейт : 9500 Кбит/сек
    Ширина : 720 пикселей
    Высота : 576 пикселей
    Соотношение сторон : 4:3
    Частота кадров : 25, 000 кадров/сек
    Стандарт вещания : PAL
    Цветовое пространство : YUV
    Субдискретизация насыщенности : 4:2:0
    Битовая глубина : 8 бит
    Тип развёртки : Чересстрочная
    Порядок развёртки : Верхнее поле первое
    Метод сжатия : С потерями
    Бит/(Пиксели*Кадры) : 0.566
    Размер потока : 942 Мбайт (92%)
    Основные цвета : BT.601 PAL
    Характеристики трансфера : BT.470 System B, BT.470 System G
    Коэффициенты матрицы : BT.601
    Аудио #1
    Идентификатор : 189 (0xBD)-128 (0x80)
    Формат : AC-3
    Формат/Информация : Audio Coding 3
    Расширение режима : CM (complete main)
    Параметр Endianness формата : Big
    Режим смешивания : DVD-Video
    Продолжительность : 22 м.
    Вид битрейта : Постоянный
    Битрейт : 192 Кбит/сек
    Каналы : 2 канала
    Расположение каналов : Front: L R
    Частота : 48, 0 КГц
    Битовая глубина : 16 бит
    Метод сжатия : С потерями
    Размер потока : 30, 8 Мбайт (3%)
    Аудио #2
    Идентификатор : 189 (0xBD)-129 (0x81)
    Формат : AC-3
    Формат/Информация : Audio Coding 3
    Расширение режима : CM (complete main)
    Параметр Endianness формата : Big
    Режим смешивания : DVD-Video
    Продолжительность : 22 м.
    Вид битрейта : Постоянный
    Битрейт : 192 Кбит/сек
    Каналы : 2 канала
    Расположение каналов : Front: L R
    Частота : 48, 0 КГц
    Битовая глубина : 16 бит
    Метод сжатия : С потерями
    Размер потока : 30, 8 Мбайт (3%)
    Меню


    Скриншоты для ознакомления




    Онлайн видео Будь красивой и молчи



    Будь красивой и молчи/Sois belle et tais-toi (1958) DVD5
    загрузка...
    Рейтинг →
     (голосов: 1, оценка 5/5, голосовать можно 1 раз )

    Другие торренты по теме:

  • Николай Печерский | Будь моим сыном (1974) [FB2, EPUB]
  • Будь моим Валентином / Be My Valentine (2013) DVDRip скачать через торрент бесплатно
  • Будь мужчиной / Man Up (2015) BDRip [H.264 / 1080p-LQ] [EN / RU, EN Sub] скачать через торрент бесплатно
  • Будь мужчиной / Man Up (2015) HDRip [VO] скачать через торрент бесплатно
  • Будь мужчиной / Man Up (2015) HDRip скачать через торрент бесплатно
  • Будь мужчиной / Man Up (2015) HDRip [H.264] скачать через торрент бесплатно
  • Ричард Брэнсон | Мои правила. Слушай, учись, смейся и будь лидером (2015) [RTF] скачать через торрент бесплатно
  • Ричард Брэнсон | Мои правила. Слушай, учись, смейся и будь лидером (2015) [FB2] скачать через торрент бесплатно


    • Комментарии (0):

      Информация

      Информация

        Посетители, находящиеся в группе Гости, не могут оставлять комментарии в данной новости.

        ↓ Меню




        ↓ Опрос

        Вы добавили сайт в закладки?
        Да
        Нет


        Top 10 за месяц (Фильмы)