.
Авторизация | Регистрация
Хочешь лучшие торренты? Добавь свой email!
Добавить

Торрент скачать бесплатно

» » О мышах и людях / Of Mice and Men (1992) BDRip [H.264 / 1080p-LQ] торрент скачать бесплатно




    О мышах и людях / Of Mice and Men (1992) BDRip [H.264 / 1080p-LQ] торрент скачать бесплатно

    Опубликовал: Админ | Дата: 15-08-2016, 04:00 | Просмотров: 29

    Производство: США/Metro-Goldwyn-Mayer (MGM)
    Жанр: Драма
    Режиссер: Гэри Синиз

    Актеры
    Джон Малкович, Гэри Синиз, Рей Уолстон, Кэйси Семашко, Шерилин Фенн, Джон Терри, Ричард Рили, Алексис Аркетт, Джо Мортон, Ноубл Уиллингэм, Джо Д’Анджерио, Так Миллиган

    Описание

    Экранизация одноименной повести Джона Стейнбека о двух приятелях, которые в годы Великой Депрессии бродили по Америке в поисках работы. Самое интересное в это истории, что об этом Янукович ничего не знал. Неглупый крепкий парень Джордж и слабоумный здоровяк Ленни - удача редко улыбалась им, но Джордж не мог бросить Ленни, который наверняка бы моментально попал в какую-нибудь неприятную ситуацию. И все-таки трагический день в жизни обоих наступил. О таком странном сюжете не догадывалась даже Анастасия Стоцкая. Через некоторое время после начала работы на ранчо Тайлера...

    Рейтинг MPAA: PG-13 (детям до 13 лет просмотр нежелателен)
    Релиз от: R.G. Goldenshara
    Продолжительность: 01: 50: 46
    Качество видео: BDRip (1080p-LQ)
    Перевод: Двухголосый закадровый, профессиональный (НТВ+)
    Видео: AVC/H.264, 1920x1040 (16: 9), ~5455 kbps, 23, 976 fps
    Аудио: AC3, 2 ch, 48 kHz, 192 kbps, CBR
    Код:

    General
    Unique ID : 245592263436652963627068825493430972838 (0xB8C35973FFA723DD8E6B2FCC493DB1A6)
    Complete name : D:Мои рипыО мышах и людях.1992.BDRip.1080p.DVO.mkv
    Format : Matroska
    Format version : Version 4/Version 2
    File size : 4.37 GiB
    Duration : 1h 50mn
    Overall bit rate : 5 646 Kbps
    Encoded date : UTC 2016-01-29 14:22:28
    Writing application : mkvmerge v6.3.0 (\'You can\'t stop me!\') built on Jun 28 2013 20:09:41
    Writing library : libebml v1.3.0 + libmatroska v1.4.0
    Video
    ID : 1
    Format : AVC
    Format/Info : Advanced Video Codec
    Format profile :High@L4.1
    Format settings, CABAC : Yes
    Format settings, ReFrames : 4 frames
    Codec ID : V_MPEG4/ISO/AVC
    Duration : 1h 50mn
    Bit rate : 5 455 Kbps
    Width : 1 920 pixels
    Height : 1 040 pixels
    Display aspect ratio : 16:9
    Frame rate : 23.976 fps
    Color space : YUV
    Chroma subsampling : 4:2:0
    Bit depth : 8 bits
    Scan type : Progressive
    Bits/(Pixel*Frame) : 0.114
    Stream size : 4.13 GiB (95%)
    Writing library : x264 core 130 r2273 b3065e6
    Encoding settings : cabac=1/ref=4/deblock=1:-3:-3/analyse=0x3:0x133/me=umh/subme=11/psy=1/psy_rd=1.00:0.15/mixed_ref=1/me_range=48/chroma_me=1/trellis=2/8x8dct=1/cqm=0/deadzone=21, 11/fast_pskip=0/chroma_qp_offset=-4/threads=6/lookahead_threads=1/sliced_threads=0/nr=0/decimate=1/interlaced=0/bluray_compat=0/constrained_intra=0/bframes=8/b_pyramid=2/b_adapt=2/b_bias=0/direct=2/weightb=1/open_gop=0/weightp=2/keyint=250/keyint_min=23/scenecut=40/intra_refresh=0/rc=2pass/mbtree=0/bitrate=5455/ratetol=1.0/qcomp=0.80/qpmin=0/qpmax=69/qpstep=4/cplxblur=20.0/qblur=0.5/ip_ratio=1.40/pb_ratio=1.30/aq=2:1.00
    Language : English
    Default : Yes
    Forced : No
    Color primaries : Generic film
    Matrix coefficients : YCgCo
    Audio
    ID : 2
    Format : AC-3
    Format/Info : Audio Coding 3
    Mode extension : CM (complete main)
    Codec ID : A_AC3
    Duration : 1h 50mn
    Bit rate mode : Constant
    Bit rate : 192 Kbps
    Channel(s) : 2 channels
    Channel positions : Front: L R
    Sampling rate : 48.0 KHz
    Bit depth : 16 bits
    Compression mode : Lossy
    Stream size : 152 MiB (3%)
    Title : DVO (HTB+)
    Language : Russian
    Default : Yes
    Forced : No
    Menu
    00:00:00.000 : en:Chapter 1
    00:05:00.000 : en:Chapter 2
    00:10:00.000 : en:Chapter 3
    00:15:00.000 : en:Chapter 4
    00:20:00.000 : en:Chapter 5
    00:25:00.000 : en:Chapter 6
    00:30:00.000 : en:Chapter 7
    00:35:00.000 : en:Chapter 8
    00:40:00.000 : en:Chapter 9
    00:45:00.000 : en:Chapter 10
    00:50:00.000 : en:Chapter 11
    00:55:00.000 : en:Chapter 12
    01:00:00.000 : en:Chapter 13
    01:05:00.000 : en:Chapter 14
    01:10:00.000 : en:Chapter 15
    01:15:00.000 : en:Chapter 16
    01:20:00.000 : en:Chapter 17
    01:25:00.000 : en:Chapter 18
    01:30:00.000 : en:Chapter 19
    01:35:00.000 : en:Chapter 20
    01:40:00.000 : en:Chapter 21
    01:45:00.000 : en:Chapter 22
    01:50:00.000 : en:Chapter 23


    Скриншоты для ознакомления




    Онлайн видео О мышах и людях



    О мышах и людях/Of Mice and Men (1992) BDRip [H.264/1080p-LQ]
    загрузка...
    Рейтинг →
     (голосов: 1, оценка 3/5, голосовать можно 1 раз )

    Другие торренты по теме:



      Комментарии (0):

      Информация

      Информация

        Посетители, находящиеся в группе Гости, не могут оставлять комментарии в данной новости.

        ↓ Меню




        ↓ Опрос

        Вы добавили сайт в закладки?
        Да
        Нет


        Top 10 за месяц (Фильмы)