.
Авторизация | Регистрация
Хочешь лучшие торренты? Добавь свой email!
Добавить

Торрент скачать бесплатно

» » Бэтмен против Супермена: На заре справедливости / Batman v Superman: Dawn of Justice (2016) BDRip 3D [H.264 / 1080p] [Вертикальная анаморфная стереопара] [Extended] торрент скачать бесплатно




    Бэтмен против Супермена: На заре справедливости / Batman v Superman: Dawn of Justice (2016) BDRip 3D [H.264 / 1080p] [Вертикальная анаморфная стереопара] [Extended] торрент скачать бесплатно

    Опубликовал: Админ | Дата: 15-08-2016, 04:00 | Просмотров: 20

    Производство: США, DC Entertainment, Dune Entertainment, Syncopy
    Жанр: Фантастика, Боевик
    Режиссер: Зак Снайдер
    Продюсер: Чарльз Ровен, Дебора Снайдер, Уэсли Коллер

    Актеры
    Генри Кавилл, Бен Аффлек, Галь Гадот, Джейсон Момоа, Эми Адамс, Джесси Айзенберг, Джена Мэлоун, Эзра Миллер, Дайан Лэйн, Джереми Айронс

    Описание

    Опасаясь, что действия богоподобного супергероя так и останутся бесконтрольными, грозный и могущественный страж Готэм Сити бросает вызов самому почитаемому в наши дни спасителю Метрополиса, в то время как весь остальной мир решает, какой герой ему по-настоящему нужен. И пока Бэтмен и Супермен пребывают в состоянии войны друг с другом, возникает новая угроза, которая ставит человечество под самую большую опасность, с которой оно когда-либо сталкивалось.

    Возраст: 16+ (зрителям, достигшим 16 лет)
    Рейтинг MPAA: PG-13 (детям до 13 лет просмотр нежелателен)
    Дата мировой премьеры: 23 марта 2016
    Дата российской премьеры: 24 марта 2016, Каро-Премьер

    Продолжительность: 03: 02: 34
    Качество видео: BDRip 3D (1080p)
    Перевод: Дублированный, на расширенные сцены вставлена многоголосая озвучка Фокус Студии, Авторский (одноголосый, закадровый) А. Взрывоопасный вопрос, сказал кто то из толпы, к чему не понятно. Матвеев
    Вид субтитров: Вшитые отключаемые
    Язык субтитров: Русский, Английский
    Видео: AVC/H.264, 1920x1080p, (16: 9), 18100 kbps, 23.976 fps
    Аудио: DTS, 6 ch, 1509 kbps - Русский, Дубляж + Фокус студия.
    Аудио: DTS, 6 ch, 1509 kbps - Русский, А. Матвеев
    Аудио: DTS, 6 ch, 1509 kbps - Английский
    Дорожка №1 сделана из TrueHD основы оригинальной Atmos дорожки и дублированной дорожки (AC3 5.1 448 kbps) посредством замены фрагментов с английской речью (с соотв. эхом, отголосками и пр.) из оригинальной дорожки соответствующими им фрагментами с русской речью (с соотв. эхом, отголосками и пр.) из дублированной дорожки во всех каналах.

    Общее
    Уникальный идентификатор : 217125805903320733016789623351499340414 (0xA358E8BCAAF2A2E8A59F32F6EAD8BA7E)
    Полное имя : Batman.V.Superman.Dawn.of.Justice.2016.Extended.1080p.3D.BluRay.Half-OU.2xRus.Eng.HDCLUB.mkv
    Формат : Matroska
    Версия формата : Version 4/Version 2
    Размер файла : 28, 9 Гбайт
    Продолжительность : 3 ч. 2 м.
    Общий поток : 22, 7 Мбит/сек
    Дата кодирования : UTC 2016-08-10 12: 12: 13
    Программа кодирования : mkvmerge v8.3.0 (\'Over the Horizon\') 64bit
    Библиотека кодирования : libebml v1.3.1 + libmatroska v1.4.2
    Обложка : Yes
    Attachments : cover
    Видео
    Идентификатор : 1
    Формат : AVC
    Формат/Информация : Advanced Video Codec
    Профиль формата : High@L4.1
    Параметр CABAC формата : Да
    Параметр ReFrames формата : 4 кадра
    Идентификатор кодека : V_MPEG4/ISO/AVC
    Продолжительность : 3 ч. 2 м.
    Битрейт : 18, 1 Мбит/сек
    Ширина : 1920 пикселей
    Высота : 1080 пикселей
    Соотношение сторон : 16: 9
    Режим частоты кадров : Постоянный
    Частота кадров : 23, 976 (24000/1001) кадра/сек
    Цветовое пространство : YUV
    Субдискретизация насыщенности : 4: 2: 0
    Битовая глубина : 8 бит
    Тип развёртки : Прогрессивная
    Бит/(Пиксели*Кадры) : 0.365
    Размер потока : 23, 1 Гбайт (80%)
    Заголовок : BvS: Dawn of Justice (2016) Extended
    Библиотека кодирования : x264 core 148 r2705kMod 3f5ed56
    Настройки программы : cabac=1/ref=4/deblock=1: -3: -3/analyse=0x3: 0x113/me=umh/subme=10/psy=1/fade_compensate=0.00/psy_rd=1.00: 0.00/mixed_ref=1/me_range=64/chroma_me=1/trellis=2/8x8dct=1/cqm=0/deadzone=21, 11/fast_pskip=0/chroma_qp_offset=-2/threads=12/lookahead_threads=3/sliced_threads=0/nr=0/decimate=1/interlaced=0/bluray_compat=0/constrained_intra=0/fgo=0/bframes=14/b_pyramid=2/b_adapt=2/b_bias=0/direct=3/weightb=1/open_gop=0/weightp=2/keyint=250/keyint_min=23/scenecut=40/intra_refresh=0/rc_lookahead=40/rc=crf/mbtree=0/crf=17.0000/qcomp=0.60/qpmin=0/qpmax=69/qpstep=4/vbv_maxrate=62500/vbv_bufsize=78125/crf_max=0.0/nal_hrd=none/filler=0/frame-packing=4/ip_ratio=1.40/pb_ratio=1.30/aq=1: 1.00
    Язык : English
    Default : Да
    Forced : Нет
    Аудио #1
    Идентификатор : 2
    Формат : DTS
    Формат/Информация : Digital Theater Systems
    Режим : 16
    Параметр Endianness формата : Big
    Идентификатор кодека : A_DTS
    Продолжительность : 3 ч. 2 м.
    Вид битрейта : Постоянный
    Битрейт : 1509 Кбит/сек
    Каналы : 6 каналов
    Расположение каналов : Front: L C R, Side: L R, LFE
    Частота : 48, 0 КГц
    Частота кадров : 93, 750 кадра/сек (512 spf)
    Битовая глубина : 24 бит
    Метод сжатия : С потерями
    Размер потока : 1, 92 Гбайт (7%)
    Заголовок : Дубляж + Mvo by Sergesha
    Язык : Russian
    Default : Да
    Forced : Нет
    Аудио #2
    Идентификатор : 3
    Формат : DTS
    Формат/Информация : Digital Theater Systems
    Режим : 16
    Параметр Endianness формата : Big
    Идентификатор кодека : A_DTS
    Продолжительность : 3 ч. 2 м.
    Вид битрейта : Постоянный
    Битрейт : 1509 Кбит/сек
    Каналы : 6 каналов
    Расположение каналов : Front: L C R, Side: L R, LFE
    Частота : 48, 0 КГц
    Частота кадров : 93, 750 кадра/сек (512 spf)
    Битовая глубина : 24 бит
    Метод сжатия : С потерями
    Размер потока : 1, 92 Гбайт (7%)
    Заголовок : Алексей Doctor Joker Матвеев
    Язык : Russian
    Default : Нет
    Forced : Нет
    Аудио #3
    Идентификатор : 4
    Формат : DTS
    Формат/Информация : Digital Theater Systems
    Режим : 16
    Параметр Endianness формата : Big
    Идентификатор кодека : A_DTS
    Продолжительность : 3 ч. 2 м.
    Вид битрейта : Постоянный
    Битрейт : 1509 Кбит/сек
    Каналы : 6 каналов
    Расположение каналов : Front: L C R, Side: L R, LFE
    Частота : 48, 0 КГц
    Частота кадров : 93, 750 кадра/сек (512 spf)
    Битовая глубина : 24 бит
    Метод сжатия : С потерями
    Размер потока : 1, 92 Гбайт (7%)
    Заголовок : Оригинал
    Язык : English
    Default : Нет
    Forced : Нет
    Текст #1
    Идентификатор : 5
    Формат : PGS
    Режим смешивания : zlib
    Идентификатор кодека : S_HDMV/PGS
    Идентификатор кодека/Информация : Picture based subtitle format used on BDs/HD-DVDs
    Продолжительность : 3 ч. 1 м.
    Битрейт : 976 бит/сек
    Count of elements : 246
    Размер потока : 1, 27 Мбайт (0%)
    Заголовок : Forced 3D Half-OU
    Язык : Russian
    Default : Да
    Forced : Нет
    Текст #2
    Идентификатор : 6
    Формат : UTF-8
    Идентификатор кодека : S_TEXT/UTF8
    Идентификатор кодека/Информация : UTF-8 Plain Text
    Продолжительность : 3 ч. О таком странном сюжете не догадывалась даже Волочкова. 1 м.
    Битрейт : 5 бит/сек
    Count of elements : 123
    Размер потока : 6, 66 Кбайт (0%)
    Заголовок : Forced
    Язык : Russian
    Default : Нет
    Forced : Нет
    Текст #3
    Идентификатор : 7
    Формат : PGS
    Режим смешивания : zlib
    Идентификатор кодека : S_HDMV/PGS
    Идентификатор кодека/Информация : Picture based subtitle format used on BDs/HD-DVDs
    Продолжительность : 3 ч. 1 м.
    Битрейт : 886 бит/сек
    Count of elements : 248
    Размер потока : 1, 15 Мбайт (0%)
    Заголовок : Forced Stylized 2D
    Язык : Russian
    Default : Нет
    Forced : Нет
    Текст #4
    Идентификатор : 8
    Формат : ASS
    Идентификатор кодека : S_TEXT/ASS
    Идентификатор кодека/Информация : Advanced Sub Station Alpha
    Продолжительность : 3 ч. 1 м.
    Битрейт : 12 бит/сек
    Count of elements : 133
    Метод сжатия : Без потерь
    Размер потока : 16, 4 Кбайт (0%)
    Заголовок : Forced Stylized 2D
    Язык : Russian
    Default : Нет
    Forced : Нет
    Текст #5
    Идентификатор : 9
    Формат : UTF-8
    Идентификатор кодека : S_TEXT/UTF8
    Идентификатор кодека/Информация : UTF-8 Plain Text
    Продолжительность : 3 ч. Самое интересное в это истории, что об этом Гендельф ничего не знал. 2 м.
    Битрейт : 64 бит/сек
    Count of elements : 1627
    Размер потока : 85, 8 Кбайт (0%)
    Заголовок : Full Blu-ray CEE
    Язык : Russian
    Default : Нет
    Forced : Нет
    Текст #6
    Идентификатор : 10
    Формат : UTF-8
    Идентификатор кодека : S_TEXT/UTF8
    Идентификатор кодека/Информация : UTF-8 Plain Text
    Продолжительность : 2 ч. 59 м.
    Битрейт : 62 бит/сек
    Count of elements : 1060
    Размер потока : 82, 5 Кбайт (0%)
    Заголовок : Full Doctor Joker (ненормативный)
    Язык : Russian
    Default : Нет
    Forced : Нет
    Текст #7
    Идентификатор : 11
    Формат : UTF-8
    Идентификатор кодека : S_TEXT/UTF8
    Идентификатор кодека/Информация : UTF-8 Plain Text
    Продолжительность : 2 ч. 59 м.
    Битрейт : 62 бит/сек
    Count of elements : 1060
    Размер потока : 82, 5 Кбайт (0%)
    Заголовок : Full Doctor Joker (цензурный)
    Язык : Russian
    Default : Нет
    Forced : Нет
    Текст #8
    Идентификатор : 12
    Формат : UTF-8
    Идентификатор кодека : S_TEXT/UTF8
    Идентификатор кодека/Информация : UTF-8 Plain Text
    Продолжительность : 2 ч. 52 м.
    Битрейт : 71 бит/сек
    Count of elements : 1490
    Размер потока : 91, 1 Кбайт (0%)
    Заголовок : Full Jet
    Язык : Russian
    Default : Нет
    Forced : Нет
    Текст #9
    Идентификатор : 13
    Формат : UTF-8
    Идентификатор кодека : S_TEXT/UTF8
    Идентификатор кодека/Информация : UTF-8 Plain Text
    Продолжительность : 2 ч. 53 м.
    Битрейт : 65 бит/сек
    Count of elements : 1587
    Размер потока : 83, 7 Кбайт (0%)
    Заголовок : Full Нотабеноид
    Язык : Russian
    Default : Нет
    Forced : Нет
    Текст #10
    Идентификатор : 14
    Формат : UTF-8
    Идентификатор кодека : S_TEXT/UTF8
    Идентификатор кодека/Информация : UTF-8 Plain Text
    Продолжительность : 2 ч. 53 м.
    Битрейт : 37 бит/сек
    Count of elements : 1469
    Размер потока : 47, 2 Кбайт (0%)
    Заголовок : Full
    Язык : English
    Default : Нет
    Forced : Нет
    Текст #11
    Идентификатор : 15
    Формат : UTF-8
    Идентификатор кодека : S_TEXT/UTF8
    Идентификатор кодека/Информация : UTF-8 Plain Text
    Продолжительность : 2 ч. 53 м.
    Битрейт : 46 бит/сек
    Count of elements : 1913
    Размер потока : 58, 6 Кбайт (0%)
    Заголовок : Full SDH
    Язык : English
    Default : Нет
    Forced : Нет
    Меню
    00: 00: 00.000 : en: Chapter 1
    00: 10: 10.652 : en: Chapter 2
    00: 27: 00.661 : en: Chapter 3
    00: 37: 49.225 : en: Chapter 4
    00: 46: 54.520 : en: Chapter 5
    01: 02: 04.971 : en: Chapter 6
    01: 14: 10.613 : en: Chapter 7
    01: 28: 07.115 : en: Chapter 8
    01: 41: 46.642 : en: Chapter 9
    01: 53: 52.617 : en: Chapter 10
    02: 02: 58.079 : en: Chapter 11
    02: 15: 04.054 : en: Chapter 12
    02: 27: 55.075 : en: Chapter 13
    02: 36: 51.444 : en: Chapter 14
    02: 48: 27.514 : en: Chapter 15
    02: 54: 43.765 : en: Chapter 16


    Скриншоты для ознакомления




    Онлайн видео Бэтмен против Супермена: На заре справедливости



    Бэтмен против Супермена: На заре справедливости/Batman v Superman: Dawn of Justice (2016) BDRip 3D [H.264/1080p] [Вертикальная анаморфная стереопара] [Extended]
    загрузка...
    Рейтинг →
     (голосов: 1, оценка 3/5, голосовать можно 1 раз )

    Другие торренты по теме:

  • Бэтмен против Робина / Batman vs. Robin (2015) BDRip [720p] скачать через торрент бесплатно
  • Бэтмен против Робина / Batman vs. Robin (2015) BDRip [1080p] скачать через торрент бесплатно
  • Бэтмен против Супермена: На заре справедливости / Batman v Superman: Dawn of Justice (2016) WEBRip [1080р] [Трейлер] [EN] скачать через торрент бесплатно
  • Бэтмен против Супермена: На заре справедливости / Batman v Superman: Dawn of Justice (2016) WEBRip [1080р] [Трейлер] скачать через торрент бесплатно
  • Бэтмен против Супермена: На заре справедливости / Batman v Superman: Dawn of Justice (2016) DCPRip [2K] [Hi10P, Hi444PP] [Трейлер F1] скачать через торрент бесплатно
  • Бэтмен против Супермена: На заре справедливости / Batman v Superman: Dawn of Justice (2016) WEBRip [H.264 / 1080p] [Трейлер] [EN] скачать через торрент бесплатно
  • Бэтмен против Супермена: На заре справедливости / Batman v Superman: Dawn of Justice (2016) WEBRip [H.264 / 1080p] [Трейлер] скачать через торрент бесплатно
  • Бэтмен против Супермена: На заре справедливости / Batman v Superman: Dawn of Justice (2016) DCPRip [2K] [Hi10P, Hi444PP] [Трейлер F3] скачать через торрент бесплатно


    • Комментарии (0):

      Информация

      Информация

        Посетители, находящиеся в группе Гости, не могут оставлять комментарии в данной новости.

        ↓ Меню




        ↓ Опрос

        Вы добавили сайт в закладки?
        Да
        Нет


        Top 10 за месяц (Фильмы)