.
Авторизация | Регистрация
Хочешь лучшие торренты? Добавь свой email!
Добавить

Торрент скачать бесплатно

» » Факультет / The Faculty (1998) BDRip [H.264 / 1080p-LQ] торрент скачать бесплатно




    Факультет / The Faculty (1998) BDRip [H.264 / 1080p-LQ] торрент скачать бесплатно

    Опубликовал: Админ | Дата: 14-08-2016, 04:03 | Просмотров: 61

    Производство: США/Dimension Films, Los Hooligans Productions
    Жанр: Ужасы, Фантастика, Триллер, Комедия, Детектив
    Режиссер: Роберт Родригес

    Актеры
    Джош Хартнетт, Элайджа Вуд, Джордана Брюстер, Клеа ДюВалл, Лора Харрис, Шон Хэтоси, Сальма Хайек, Фамке Янссен, Пайпер Лори, Кристофер МакДональд, Биби Ньювирт, Роберт Патрик

    Описание

    Колледж Хэррингтон давно утратил свою первозданность. Его обшарпанные коридоры ежедневно заполняет будущее Америки - одиночки и лидеры, пижоны и наркоманы, умники и кретины. Подобно подросткам везде и всюду, они ведут постоянную борьбу друг с другом.
    Но однажды студенты делают ужасающее открытие: их преподаватели - пришельцы с другой планеты! Столкнувшись с вызовом, который они даже не могли себе вообразить, бывшие враги вынуждены объединиться, чтобы спастись от инопланетного вторжения...

    Возраст: 16+ (зрителям, достигшим 16 лет)
    Рейтинг MPAA: R (лицам до 17 лет обязательно присутствие взрослого)
    Дата выхода DVD релиза: 1 сентября 1999, Videogram
    Дата выхода Blu-ray релиза: 27 ноября 2013, Кармен Видео

    Релиз от: R.G. Goldenshara
    Продолжительность: 01: 44: 11
    Качество видео: BDRip (1080p-LQ)
    Перевод: Двухголосый закадровый, профессиональный (R5)
    Язык субтитров: Русский, Английский
    Вид субтитров: Вшитые (отключаемые)
    Видео: AVC/H.264, 1920x1080 (16: 9), ~5557 kbps, 23, 976 fps
    Аудио: AC3, 6 ch, 48 kHz, 448 kbps, CBR
    Код:

    General
    Unique ID : 214555904605533382500261301184767184601 (0xA169F6D20ACA1331B015AC20A87FCED9)
    Complete name : D:Мои рипыФакультет.1998.BDRip.1080p.DVO.mkv
    Format : Matroska
    Format version : Version 4/Version 2
    File size : 4.37 GiB
    Duration : 1h 44mn
    Overall bit rate : 6 004 Kbps
    Encoded date : UTC 2016-01-21 14:10:18
    Writing application : mkvmerge v6.3.0 (\'You can\'t stop me!\') built on Jun 28 2013 20:09:41
    Writing library : libebml v1.3.0 + libmatroska v1.4.0
    Video
    ID : 1
    Format : AVC
    Format/Info : Advanced Video Codec
    Format profile :High@L4.1
    Format settings, CABAC : Yes
    Format settings, ReFrames : 4 frames
    Codec ID : V_MPEG4/ISO/AVC
    Duration : 1h 44mn
    Bit rate : 5 557 Kbps
    Width : 1 920 pixels
    Height : 1 080 pixels
    Display aspect ratio : 16:9
    Frame rate mode : Constant
    Frame rate : 23.976 fps
    Color space : YUV
    Chroma subsampling : 4:2:0
    Bit depth : 8 bits
    Scan type : Progressive
    Bits/(Pixel*Frame) : 0.112
    Stream size : 3.96 GiB (91%)
    Writing library : x264 core 130 r2273 b3065e6
    Encoding settings : cabac=1/ref=4/deblock=1:-3:-3/analyse=0x3:0x133/me=umh/subme=11/psy=1/psy_rd=1.00:0.15/mixed_ref=1/me_range=48/chroma_me=1/trellis=2/8x8dct=1/cqm=0/deadzone=21, 11/fast_pskip=0/chroma_qp_offset=-4/threads=6/lookahead_threads=1/sliced_threads=0/nr=0/decimate=1/interlaced=0/bluray_compat=0/constrained_intra=0/bframes=8/b_pyramid=2/b_adapt=2/b_bias=0/direct=2/weightb=1/open_gop=0/weightp=2/keyint=250/keyint_min=23/scenecut=40/intra_refresh=0/rc=2pass/mbtree=0/bitrate=5557/ratetol=1.0/qcomp=0.80/qpmin=0/qpmax=69/qpstep=4/cplxblur=20.0/qblur=0.5/ip_ratio=1.40/pb_ratio=1.30/aq=2:1.00
    Language : English
    Default : Yes
    Forced : No
    Color primaries : Generic film
    Matrix coefficients : YCgCo
    Audio
    ID : 2
    Format : AC-3
    Format/Info : Audio Coding 3
    Mode extension : CM (complete main)
    Format settings, Endianness : Big
    Codec ID : A_AC3
    Duration : 1h 44mn
    Bit rate mode : Constant
    Bit rate : 448 Kbps
    Channel(s) : 6 channels
    Channel positions : Front: L C R, Side: L R, LFE
    Sampling rate : 48.0 KHz
    Bit depth : 16 bits
    Compression mode : Lossy
    Stream size : 334 MiB (7%)
    Title : DVO (R5)
    Language : Russian
    Default : Yes
    Forced : No
    Text #1
    ID : 3
    Format : UTF-8
    Codec ID : S_TEXT/UTF8
    Codec ID/Info : UTF-8 Plain Text
    Language : Russian
    Default : No
    Forced : No
    Text #2
    ID : 4
    Format : UTF-8
    Codec ID : S_TEXT/UTF8
    Codec ID/Info : UTF-8 Plain Text
    Language : English
    Default : No
    Forced : No


    Скриншоты для ознакомления




    Онлайн видео Факультет



    Факультет/The Faculty (1998) BDRip [H.264/1080p-LQ]
    загрузка...
    Рейтинг →
     (голосов: 1, оценка 5/5, голосовать можно 1 раз )

    Другие торренты по теме:

  • Факультет / The Faculty (1998) BDRip [720p]
  • Факультет / The Faculty (1998) BDRip [H.265 / 1080p-LQ] [MVO]
  • Факультет / The Faculty (1998) HDRip [H.264]


    • Комментарии (0):

      Информация

      Информация

        Посетители, находящиеся в группе Гости, не могут оставлять комментарии в данной новости.

        ↓ Меню




        ↓ Опрос

        Вы добавили сайт в закладки?
        Да
        Нет


        Top 10 за месяц (Фильмы)