.
Авторизация | Регистрация
Хочешь лучшие торренты? Добавь свой email!
Добавить

Торрент скачать бесплатно

» » Шаман (2011) DVDRip (сезон 1, серии 1-16 из 16) торрент скачать бесплатно




    Шаман (2011) DVDRip (сезон 1, серии 1-16 из 16) торрент скачать бесплатно

    Опубликовал: Админ | Дата: 14-08-2016, 04:03 | Просмотров: 64

    Производство: Россия Гамма-продакшн
    Жанр: детектив, криминал
    Режиссер: Максим Кубринский

    Актеры
    Владимир Скворцов, Сергей Мардарь, Игорь Ботвин, Ян Цапник, Кирилл Щербина, Андрей Дежонов, Екатерина Тарасова, Сергей Агафонов, Андрей Гульнев, Владимир Розыграев и др.

    Описание

    После двух лет, проведенных в СИЗО, на свободу выходит следователь СКП Иван Шаманов. У него есть сын, коллеги, азарт и работа, а также скверный характер и отличное чувство юмора. Он любвеобилен — и красотки отвечают ему взаимностью. Его главный враг — Корнеев, человек, из-за которого Шаман и попал за решетку. Шаман слишком крутой в своей профессии — и это не может оставить равнодушными тех, с кем он борется: преступники его боятся, запугивают и пытаются убрать. Но Шаман точно знает, что сила — в правде. А потому всегда на шаг опережает злодеев. Но кто победит в итоге?

    Возраст: 16+ (зрителям, достигшим 16 лет)
    Продолжительность: ~ 00: 45: 00 серия
    Качество видео: DVDRip
    Видео: Xvid, 720x400 (16: 9), ~1489 Kbps
    Аудио: AC3, 2 ch, 192 kbps, CBR
    Код:

    Общее
    Полное имя : D:Мои фильмыShaman_S1_1-16iz16_2011_XviD_DVDRip1.Кровавый маршрут.(1 сер.).avi
    Формат : AVI
    Формат/Информация : Audio Video Interleave
    Размер файла : 555 Мбайт
    Продолжительность : 45 м.
    Общий поток : 1690 Кбит/сек
    Библиотека кодирования : VirtualDub build 35491/release
    Видео
    Идентификатор : 0
    Формат : MPEG-4 Visual
    Профиль формата : Advanced Simple@L5
    Параметр BVOP формата : 2
    Параметр QPel формата : Нет
    Параметр GMC формата : Без точки перехода
    Параметр матрицы формата : Default (H.263)
    Идентификатор кодека : XVID
    Идентификатор кодека/Подсказка : XviD
    Продолжительность : 45 м.
    Битрейт : 1489 Кбит/сек
    Ширина : 720 пикселей
    Высота : 400 пикселей
    Соотношение сторон : 16:9
    Частота кадров : 25, 000 кадров/сек
    Цветовое пространство : YUV
    Субдискретизация насыщенности : 4:2:0
    Битовая глубина : 8 бит
    Тип развёртки : Прогрессивная
    Метод сжатия : С потерями
    Бит/(Пиксели*Кадры) : 0.207
    Размер потока : 489 Мбайт (88%)
    Библиотека кодирования : XviD 67
    Аудио
    Идентификатор : 1
    Формат : AC-3
    Формат/Информация : Audio Coding 3
    Расширение режима : CM (complete main)
    Параметр Endianness формата : Big
    Идентификатор кодека : 2000
    Продолжительность : 45 м.
    Вид битрейта : Постоянный
    Битрейт : 192 Кбит/сек
    Каналы : 2 канала
    Расположение каналов : Front: L R
    Частота : 48, 0 КГц
    Частота кадров : 31, 250 кадров/сек (1536 spf)
    Метод сжатия : С потерями
    Размер потока : 63, 1 Мбайт (11%)
    Выравнивание : Соединение по промежуткам
    Продолжительность промежутка : 40 мс. (1, 00 видеокадр)
    Время предзагрузки промежутка : 512 мс.


    Скриншоты для ознакомления




    Онлайн видео Шаман (2011) DVDRip (сезон любимого сериала 1, серии 1



    Шаман (2011) DVDRip (сезон 1, серии 1-16 из 16)
    загрузка...
    Рейтинг →
     (голосов: 1, оценка 4/5, голосовать можно 1 раз )

    Другие торренты по теме:

  • Shamanic Princess / Принцесса-шаман [1996, OVA, 6 ep.] DVDRip Hi10p raw


    • Комментарии (0):

      Информация

      Информация

        Посетители, находящиеся в группе Гости, не могут оставлять комментарии в данной новости.

        ↓ Меню




        ↓ Опрос

        Вы добавили сайт в закладки?
        Да
        Нет


        Top 10 за месяц (Фильмы)