.
Авторизация | Регистрация
Хочешь лучшие торренты? Добавь свой email!
Добавить

Торрент скачать бесплатно

» » Белоснежка и Охотник 2 / The Huntsman (2016) BDRip [H.264 / 720p] [Расширенная версия] торрент скачать бесплатно




    Белоснежка и Охотник 2 / The Huntsman (2016) BDRip [H.264 / 720p] [Расширенная версия] торрент скачать бесплатно

    Опубликовал: Админ | Дата: 9-08-2016, 04:01 | Просмотров: 44

    Производство: США/Roth Films, Universal Pictures
    Жанр: фэнтези, боевик, драма, приключения
    Режиссер: Седрик Николя-Троян
    Продюсер: Джо Рот, Сара Брэдшоу, Палак Патель

    Актеры
    Крис Хемсворт, Шарлиз Терон, Джессика Честейн, Эмили Блант, Ник Фрост, Роб Брайдон, Шеридан Смит, Александра Роуч, Сопе Дирису, Сэм Хэзелдайн, Сэм Клафлин, Софи Куксон, Конрад Кхан, Ниам Уолтер, Нана Аджйеман-Бедьяко, Амелия Крауч, Фред Татаскьор, Ралф Айнесон, Линн Уилмот, Колин Морган

    Описание

    Когда любовь уходит, сердце прекрасной девы обращается в лед. И даже сотни королевств не смогут сдержать поступь ее несметного воинства. Лишь Охотник не ведает страха. Сквозь проклятый лес он идет навстречу своей судьбе.

    Возраст: 16+ (зрителям, достигшим 16 лет)
    Рейтинг MPAA: PG-13 (детям до 13 лет просмотр нежелателен)
    Дата мировой премьеры: 29 марта 2016
    Дата российской премьеры: 14 апреля 2016, UPI 3D

    Продолжительность: 02: 00: 10
    Качество: BDRip 720p
    Перевод: Дублированный (Лицензия BD EUR)
    Вид субтитров: Вшитые отключаемые
    Язык субтитров: Русский, Английский
    Видео: AVC/H.264, 1280x536, (2, 40: 1), 4 022 Kbps, 23, 976 fps
    Аудио: AC3, 6 ch, 640 kbps - Русский
    Аудио: DTS, 6 ch, 768 kbps - Русский
    Аудио: DTS, 6 ch, 1509 kbps - Английский
    Код:

    General
    Unique ID : 232554077457274257150304200143051254339 (0xAEF44940E47C5D57B40A39FD68696A43)
    Complete name : G:VideoНовая папкаThe.Huntsman.Winters.War.2016.Extended.Lic.BDRip.720p.ExKinoRay.mkv
    Format : Matroska
    Format version : Version 4/Version 2
    File size : 5.83 GiB
    Duration : 2h 0mn
    Overall bit rate : 6 942 Kbps
    Movie name : The.Huntsman.Winters.War.2016.Extended.Lic.BDRip.720p.ExKinoRay
    Encoded date : UTC 2016-08-07 22:57:44
    Writing application : mkvmerge v8.3.0 (\'Over the Horizon\') 64bit
    Writing library : libebml v1.3.1 + libmatroska v1.4.2
    Video
    ID : 1
    Format : AVC
    Format/Info : Advanced Video Codec
    Format profile :High@L4.1
    Format settings, CABAC : Yes
    Format settings, ReFrames : 9 frames
    Codec ID : V_MPEG4/ISO/AVC
    Duration : 2h 0mn
    Bit rate : 4 022 Kbps
    Width : 1 280 pixels
    Height : 536 pixels
    Display aspect ratio : 2.40:1
    Frame rate mode : Constant
    Frame rate : 23.976 (24000/1001) fps
    Color space : YUV
    Chroma subsampling : 4:2:0
    Bit depth : 8 bits
    Scan type : Progressive
    Bits/(Pixel*Frame) : 0.244
    Stream size : 3.38 GiB (58%)
    Writing library : x264 core 148 r2692+46 0f71ed5 7mod [8-bit@all X86_64]
    Encoding settings : cabac=1/ref=9/deblock=1:-3:-3/analyse=0x3:0x113/me=umh/subme=11/psy=1/fade_compensate=0.00/psy_rd=1.00:0.00/mixed_ref=1/me_range=32/chroma_me=1/trellis=2/8x8dct=1/cqm=0/deadzone=21, 11/fast_pskip=0/chroma_qp_offset=-3/threads=12/lookahead_threads=2/sliced_threads=0/nr=0/decimate=1/interlaced=0/bluray_compat=0/constrained_intra=0/fgo=0/bframes=8/b_pyramid=2/b_adapt=2/b_bias=0/direct=3/weightb=1/open_gop=0/weightp=2/keyint=250/keyint_min=23/scenecut=40/intra_refresh=0/rc_lookahead=40/rc=crf/mbtree=0/crf=17.0000/qcomp=0.60/qpmin=0:0:0/qpmax=69:69:69/qpstep=4/vbv_maxrate=30000/vbv_bufsize=30000/crf_max=0.0/nal_hrd=none/filler=0/ip_ratio=1.40/pb_ratio=1.30/aq=4:1.00/aq-sensitivity=10.00/aq-factor=1.00:1.00:1.00/aq2=0/aq3=0
    Language : English
    Default : Yes
    Forced : No
    Color range : Limited
    Matrix coefficients : BT.709
    Audio #1
    ID : 2
    Format : AC-3
    Format/Info : Audio Coding 3
    Mode extension : CM (complete main)
    Format settings, Endianness : Big
    Codec ID : A_AC3
    Duration : 2h 0mn
    Bit rate mode : Constant
    Bit rate : 640 Kbps
    Channel(s) : 6 channels
    Channel positions : Front: L C R, Side: L R, LFE
    Sampling rate : 48.0 KHz
    Frame rate : 31.250 fps (1536 spf)
    Compression mode : Lossy
    Stream size : 550 MiB (9%)
    Title : DUB-AC3 [Blu-Ray EUR]
    Language : Russian
    Default : Yes
    Forced : No
    Audio #2
    ID : 3
    Format : DTS
    Format/Info : Digital Theater Systems
    Mode : 16
    Format settings, Endianness : Big
    Codec ID : A_DTS
    Duration : 2h 0mn
    Bit rate mode : Constant
    Bit rate : 768 Kbps
    Channel(s) : 6 channels
    Channel positions : Front: L C R, Side: L R, LFE
    Sampling rate : 48.0 KHz
    Frame rate : 93.750 fps (512 spf)
    Bit depth : 24 bits
    Compression mode : Lossy
    Stream size : 660 MiB (11%)
    Title : DUB-DTS [Blu-Ray EUR]
    Language : Russian
    Default : No
    Forced : No
    Audio #3
    ID : 4
    Format : DTS
    Format/Info : Digital Theater Systems
    Mode : 16
    Format settings, Endianness : Big
    Codec ID : A_DTS
    Duration : 2h 0mn
    Bit rate mode : Constant
    Bit rate : 1 509 Kbps
    Channel(s) : 6 channels
    Channel positions : Front: L C R, Side: L R, LFE
    Sampling rate : 48.0 KHz
    Frame rate : 93.750 fps (512 spf)
    Bit depth : 24 bits
    Compression mode : Lossy
    Stream size : 1.27 GiB (22%)
    Title : Original
    Language : English
    Default : No
    Forced : No
    Text #1
    ID : 5
    Format : UTF-8
    Codec ID : S_TEXT/UTF8
    Codec ID/Info : UTF-8 Plain Text
    Duration : 1h 59mn
    Bit rate : 57 bps
    Count of elements : 1100
    Stream size : 50.0 KiB (0%)
    Title : Full
    Language : Russian
    Default : No
    Forced : No
    Text #2
    ID : 6
    Format : UTF-8
    Codec ID : S_TEXT/UTF8
    Codec ID/Info : UTF-8 Plain Text
    Duration : 1h 50mn
    Bit rate : 36 bps
    Count of elements : 1139
    Stream size : 29.1 KiB (0%)
    Title : Full
    Language : English
    Default : No
    Forced : No
    Text #3
    ID : 7
    Format : UTF-8
    Codec ID : S_TEXT/UTF8
    Codec ID/Info : UTF-8 Plain Text
    Duration : 1h 49mn
    Bit rate : 41 bps
    Count of elements : 1323
    Stream size : 33.0 KiB (0%)
    Title : SDH
    Language : English
    Default : No
    Forced : No
    Menu
    00:00:00.000 : en:00:00:00.000
    00:06:26.428 : en:00:06:26.428
    00:09:26.858 : en:00:09:26.858
    00:15:03.194 : en:00:15:03.194
    00:21:33.501 : en:00:21:33.501
    00:30:17.858 : en:00:30:17.858
    00:36:08.166 : en:00:36:08.166
    00:40:55.661 : en:00:40:55.661
    00:46:56.439 : en:00:46:56.439
    00:52:05.748 : en:00:52:05.748
    00:59:35.530 : en:00:59:35.530
    01:04:23.943 : en:01:04:23.943
    01:11:16.689 : en:01:11:16.689
    01:15:19.223 : en:01:15:19.223
    01:22:42.833 : en:01:22:42.833
    01:28:15.206 : en:01:28:15.206
    01:33:58.007 : en:01:33:58.007
    01:39:21.956 : en:01:39:21.956
    01:48:13.904 : en:01:48:13.904
    01:50:19.571 : en:01:50:19.571


    Скриншоты для ознакомления




    Онлайн видео Белоснежка и Охотник 2



    Белоснежка и Охотник 2/The Huntsman (2016) BDRip [H.264/720p] [Расширенная версия]
    загрузка...
    Рейтинг →
     (голосов: 1, оценка 5/5, голосовать можно 1 раз )

    Другие торренты по теме:

  • Белоснежка и охотник / Snow White and the Huntsman (2012) BDRip [1080p] [Extended Cut] ATV
  • Белоснежка и охотник / Snow White and the Huntsman (2012) BDRip [576p] [Extended Cut] iPad
  • Белоснежка и охотник / Snow White and the Huntsman (2012) BDRip [H.264 / 720p] [hand made 48fps] [Extended Cut] скачать через торрент бесплатно
  • Белоснежка и Охотник 2 / The Huntsman (2016) WEBRip [QuickTime / 1080p] [Тизер] скачать через торрент бесплатно
  • Белоснежка и Охотник 2 / The Huntsman (2016) DCPRip [4K] [MPEG-2 / 2160p] [Трейлер] скачать через торрент бесплатно
  • Белоснежка и Охотник 2 / The Huntsman (2016) DCPRip [2K] [Hi10P, Hi444PP] [Трейлер А] скачать через торрент бесплатно
  • Белоснежка и Охотник 2 / The Huntsman (2016) CamRip
  • Белоснежка и Охотник 2 / The Huntsman: Winters War (2016) TC [Звук с CamRip]


    • Комментарии (0):

      Информация

      Информация

        Посетители, находящиеся в группе Гости, не могут оставлять комментарии в данной новости.

        ↓ Меню




        ↓ Опрос

        Вы добавили сайт в закладки?
        Да
        Нет


        Top 10 за месяц (Фильмы)