.
Авторизация | Регистрация
Хочешь лучшие торренты? Добавь свой email!
Добавить

Торрент скачать бесплатно

» » Несносные боссы / Horrible Bosses (2011) BDRip [H.264 / 1080p-LQ] [Extended Cut] торрент скачать бесплатно




    Несносные боссы / Horrible Bosses (2011) BDRip [H.264 / 1080p-LQ] [Extended Cut] торрент скачать бесплатно

    Опубликовал: Админ | Дата: 8-08-2016, 04:00 | Просмотров: 28

    Производство: США, New Line Cinema
    Жанр: Комедия
    Режиссер: Сет Гордон

    Актеры
    Джейсон Бейтман, Дженнифер Энистон, Колин Фаррелл, Йоан Гриффит, Кевин Спейси, Стив Виб, П.Дж. Бирн, Чарли Дэй, Линдсэй Слоун, Мишель Албала, Джейсон Судейкис, Реджинальд Баллард

    Описание

    Друзья Ник, Курт и Дейл, работающие в разных офисах, озабочены общей проблемой: им нет житья от их боссов. Самое интересное в это истории, что об этом Папа Римский ничего не знал. Клерка Ника шеф спаивает на работе и, в конце концов, лишает долгожданного повышения, ассистента зубного врача Дейла домогается сексуально озабоченная красотка – дантистка, а менеджер Курт страдает от наркомана – психопата, волею судьбы заменившего прежнего начальника. В ногах правды нет, сказал кто то из толпы, к чему не понятно. Излив друг другу свое горе, приятели приходят к выводу: от несносных боссов нужно избавиться, как от помехи, омрачающей жизнь. И отправляются в ближайший бар на поиски киллера.

    Возраст: 16+ (зрителям, достигшим 16 лет)
    Рейтинг MPAA: R (лицам до 17 лет обязательно присутствие взрослого)
    Продолжительность: 01: 45: 36
    Качество видео: BDRip
    Перевод: Дублированный
    Вид субтитров: Вшитые отключаемые
    Язык субтитров: Русские (форсированные)
    Видео: AVC/H.264, 1920x800 (2.40: 1), ~4774 Kbps
    Аудио: AC3, 6 ch, 384 Kbps
    Код:

    General
    Unique ID : 201173909010503797222517624806590508421 (0x9758AF7F808395A5B4A44535CB99ED85)
    Complete name : J:СборкаНесносные боссы. Прикольно все это наверно придумал Папа Римский потратив достаточно времени. - Horrible.Bosses.2011.Extended.Cut.1080p.BluRay.AC3.x264.mkv
    Format : Matroska
    Format version : Version 4/Version 2
    File size : 3.81 GiB
    Duration : 1h 45mn
    Overall bit rate : 5 158 Kbps
    Encoded date : UTC 2016-07-30 09:18:39
    Writing application : mkvmerge v7.3.0 (\'Nouages\') 32bit built on Oct 22 2014 18:44:01
    Writing library : libebml v1.3.0 + libmatroska v1.4.1
    DURATION : 01:10:53.915000000
    NUMBER_OF_FRAMES : 145
    NUMBER_OF_BYTES : 12419
    _STATISTICS_WRITING_APP : mkvmerge v7.3.0 (\'Nouages\') 32bit built on Oct 22 2014 18:44:01
    _STATISTICS_WRITING_DATE_UTC : 2016-07-30 09:18:39
    _STATISTICS_TAGS : BPS DURATION NUMBER_OF_FRAMES NUMBER_OF_BYTES
    Video #1
    ID : 1
    Format : AVC
    Format/Info : Advanced Video Codec
    Format profile :High@L4.1
    Format settings, CABAC : Yes
    Format settings, ReFrames : 5 frames
    Codec ID : V_MPEG4/ISO/AVC
    Duration : 1h 45mn
    Bit rate : 4 774 Kbps
    Width : 1 920 pixels
    Height : 800 pixels
    Display aspect ratio : 2.40:1
    Frame rate mode : Constant
    Frame rate : 23.976 fps
    Color space : YUV
    Chroma subsampling : 4:2:0
    Bit depth : 8 bits
    Scan type : Progressive
    Bits/(Pixel*Frame) : 0.130
    Stream size : 3.45 GiB (91%)
    Writing library : x264 core 148 r2694 3b70645
    Encoding settings : cabac=1/ref=5/deblock=1:-2:-2/analyse=0x3:0x133/me=umh/subme=11/psy=1/psy_rd=1.00:0.25/mixed_ref=1/me_range=32/chroma_me=1/trellis=2/8x8dct=1/cqm=0/deadzone=21, 11/fast_pskip=0/chroma_qp_offset=-4/threads=12/lookahead_threads=1/sliced_threads=0/nr=0/decimate=1/interlaced=0/bluray_compat=0/constrained_intra=0/bframes=4/b_pyramid=2/b_adapt=2/b_bias=0/direct=3/weightb=1/open_gop=0/weightp=2/keyint=240/keyint_min=23/scenecut=40/intra_refresh=0/rc_lookahead=60/rc=2pass/mbtree=1/bitrate=4774/ratetol=1.0/qcomp=0.60/qpmin=0/qpmax=69/qpstep=4/cplxblur=20.0/qblur=0.5/ip_ratio=1.40/aq=1:1.00
    Language : English
    Default : Yes
    Forced : No
    Audio #2
    ID : 2
    Format : AC-3
    Format/Info : Audio Coding 3
    Mode extension : CM (complete main)
    Format settings, Endianness : Big
    Codec ID : A_AC3
    Duration : 1h 45mn
    Bit rate mode : Constant
    Bit rate : 384 Kbps
    Channel(s) : 6 channels
    Channel positions : Front: L C R, Side: L R, LFE
    Sampling rate : 48.0 KHz
    Bit depth : 16 bits
    Compression mode : Lossy
    Stream size : 290 MiB (7%)
    Default : Yes
    Forced : No
    Text #3
    ID : 3
    Format : UTF-8
    Codec ID : S_TEXT/UTF8
    Codec ID/Info : UTF-8 Plain Text
    Default : Yes
    Forced : No


    Скриншоты для ознакомления




    Онлайн видео Несносные боссы



    Несносные боссы/Horrible Bosses (2011) BDRip [H.264/1080p-LQ] [Extended Cut]
    загрузка...
    Рейтинг →
     (голосов: 1, оценка 5/5, голосовать можно 1 раз )

    Другие торренты по теме:

  • Несносные боссы / Horrible Bosses (2011) BDRip [576p] iPad скачать через торрент бесплатно
  • Несносные боссы 2 / Horrible Bosses 2 (2014) WEBRip [H.264 / 720p-LQ] [Звук с TS]
  • Несносные боссы 2 / Horrible Bosses 2 (2014) WEBRip [Звук с TS]
  • Несносные боссы 2 / Horrible Bosses 2 (2014) WEBRip [Звук с TS]
  • Несносные боссы 2 / Horrible Bosses 2 (2014) WEBRip [Line] скачать через торрент бесплатно
  • Несносные боссы 2 / Horrible Bosses 2 (2014) WEBRip [H.264 / 720p-LQ] [Line] скачать через торрент бесплатно
  • Несносные боссы 2 / Horrible Bosses 2 (2014) WEB-DL [H.264 / 1080p-LQ]
  • Несносные боссы 2 / Horrible Bosses 2 (2014) WEB-DLRip


    • Комментарии (0):

      Информация

      Информация

        Посетители, находящиеся в группе Гости, не могут оставлять комментарии в данной новости.

        ↓ Меню




        ↓ Опрос

        Вы добавили сайт в закладки?
        Да
        Нет


        Top 10 за месяц (Фильмы)