.
Авторизация | Регистрация
Хочешь лучшие торренты? Добавь свой email!
Добавить

Торрент скачать бесплатно

» » В зоне особого внимания (1977) HDTV [H.264 / 1080i-LQ] торрент скачать бесплатно




    В зоне особого внимания (1977) HDTV [H.264 / 1080i-LQ] торрент скачать бесплатно

    Опубликовал: Админ | Дата: 8-08-2016, 04:00 | Просмотров: 18

    Производство: СССР, Мосфильм
    Жанр: Боевик, Приключения, Военный
    Режиссер: Андрей Малюков

    Актеры
    Борис Галкин, Михай Волонтир, Сергей Волкош, Игорь Иванов, Анатолий Кузнецов, Александр Пятков, Елена Цыплакова, Юрий Чернов, Александр Гай, Николай Крюков

    Описание

    Во время военных учений командир гвардейского полка направляет в тыл врага три диверсионные группы для обнаружения и захвата замаскированного командного пункта. Срок исполнения — двое суток. Разведчики выполняют задание в условиях, максимально приближенных к боевым…

    Возраст: 12+ (зрителям, достигшим 12 лет)
    Продолжительность: 01: 31: 35
    Качество видео: HDTV 1080i
    Видео: AVC/H.264, 1920x1080, ~8454 Kbps
    Аудио #1: MP2, 48 kHz, 2 ch, 224 kbps
    Аудио #2: АС-3, 48 kHz, 6 ch, 384 kbps
    Код:

    Общее
    Идентификатор : 16 (0x10)
    Полное имя : V zone osobogo vnimaniya_HD.ts
    Формат : MPEG-TS
    Размер файла : 6, 10 Гбайт
    Продолжительность : 1 ч. 31 м.
    Режим общего битрейта : Переменный
    Общий поток : 9540 Кбит/сек
    Видео
    Идентификатор : 1902 (0x76E)
    Идентификатор меню : 92 (0x5C)
    Формат : AVC
    Формат/Информация : Advanced Video Codec
    Профиль формата :High@L4.0
    Параметр CABAC формата : Да
    Параметр ReFrames формата : 3 кадра
    Идентификатор кодека : 27
    Продолжительность : 1 ч. 31 м.
    Битрейт : 8454 Кбит/сек
    Ширина : 1920 пикселей
    Высота : 1080 пикселей
    Соотношение сторон : 16:9
    Частота кадров : 25, 000 кадров/сек
    Стандарт вещания : PAL
    Цветовое пространство : YUV
    Субдискретизация насыщенности : 4:2:0
    Битовая глубина : 8 бит
    Тип развёртки : Чересстрочная
    Порядок развёртки : Верхнее поле первое
    Бит/(Пиксели*Кадры) : 0.163
    Размер потока : 5, 41 Гбайт (89%)
    Основные цвета : BT.709
    Характеристики трансфера : BT.709
    Коэффициенты матрицы : BT.709
    Аудио #1
    Идентификатор : 2902 (0xB56)
    Идентификатор меню : 92 (0x5C)
    Формат : MPEG Audio
    Версия формата : Version 1
    Профиль формата : Layer 2
    Идентификатор кодека : 4
    Продолжительность : 1 ч. 31 м.
    Вид битрейта : Постоянный
    Битрейт : 224 Кбит/сек
    Каналы : 2 канала
    Частота : 48, 0 КГц
    Метод сжатия : С потерями
    Задержка видео : 64 мс.
    Размер потока : 147 Мбайт (2%)
    Язык : std
    Язык, дополнительно : Clean effects
    Аудио #2
    Идентификатор : 3902 (0xF3E)
    Идентификатор меню : 92 (0x5C)
    Формат : AC-3
    Формат/Информация : Audio Coding 3
    Расширение режима : CM (complete main)
    Параметр Endianness формата : Big
    Идентификатор кодека : 6
    Продолжительность : 1 ч. 31 м.
    Вид битрейта : Постоянный
    Битрейт : 384 Кбит/сек
    Каналы : 6 каналов
    Расположение каналов : Front: L C R, Side: L R, LFE
    Частота : 48, 0 КГц
    Битовая глубина : 16 бит
    Метод сжатия : С потерями
    Задержка видео : 110 мс.
    Размер потока : 252 Мбайт (4%)
    Язык : std
    Язык, дополнительно : Clean effects
    Текст
    Идентификатор : 33 (0x21)-100
    Идентификатор меню : 92 (0x5C)
    Формат : Teletext
    Меню
    Идентификатор : 902 (0x386)
    Идентификатор меню : 92 (0x5C)
    Продолжительность : 1 ч. 31 м.
    Список : 1902 (0x76E) (AVC)/2902 (0xB56) (MPEG Audio, std)/3902 (0xF3E) (AC-3, std)/33 (0x21) ()
    Язык : /std/std


    Скриншоты для ознакомления




    Онлайн видео В зоне особого внимания (1977) HDTV [H.264



    В зоне особого внимания (1977) HDTV [H.264/1080i-LQ]
    загрузка...
    Рейтинг →
     (голосов: 1, оценка 5/5, голосовать можно 1 раз )

    Другие торренты по теме:

  • Алексей Гравицкий | В зоне тумана [S.T.A.L.K.E.R.] (2010) [M4B|AAC]
  • Космический охотник: Приключения в запретной зоне / Spacehunter: Adventures in the Forbidden Zone (1983) DVDRip [H.264]
  • Федор Крестовый | Как выжить в зоне. Советы бывалого арестанта (2010) [PDF]
  • Космический охотник: Приключения в запретной зоне / Spacehunter: Adventures in the Forbidden Zone (1983) WEB-DL [H.264 / 720p-LQ]
  • В зоне доступа любви (2017) SATRip
  • В зоне доступа любви (2017) HDTVRip [H.264]
  • В зоне доступа любви (2017) HDTVRip [H.264 / 720p]
  • В зоне доступа любви (2017) HDTV [H.264 / 1080i]


    • Комментарии (0):

      Информация

      Информация

        Посетители, находящиеся в группе Гости, не могут оставлять комментарии в данной новости.

        ↓ Меню




        ↓ Опрос

        Вы добавили сайт в закладки?
        Да
        Нет


        Top 10 за месяц (Фильмы)