.
Авторизация | Регистрация
Хочешь лучшие торренты? Добавь свой email!
Добавить

Торрент скачать бесплатно

» » Морская полиция: Спецотдел / NCIS: Naval Criminal Investigative Service (2015) WEB-DLRip (сезон 13, серии 1-14 из 24) To4ka (обновляемая) торрент скачать бесплатно




    Морская полиция: Спецотдел / NCIS: Naval Criminal Investigative Service (2015) WEB-DLRip (сезон 13, серии 1-14 из 24) To4ka (обновляемая) торрент скачать бесплатно

    Опубликовал: Админ | Дата: 8-08-2016, 04:00 | Просмотров: 124

    Производство: США/Belisarius Productions, Paramount Network Television, CBS Paramount Network Television
    Жанр: боевик, драма
    Режиссер: Дэннис Смит, Тони Уормби, Томас Дж. Райт

    Актеры
    Марк Хэрмон, Майкл Уэтерли, Поли Перретт, Дэвид МакКаллум, Шон Мюррэй, Коте де Пабло, Брайан Дитцен, Роки Кэрролл, Лорен Холли, Саша Александр и др.

    Описание

    Остросюжетный детектив о приключениях команды специальных агентов. Их задача - расследовать преступления, связанные со служащими морской пехоты. Отдел расследований возглавляет специальный агент Лерой Джетро Гиббс. Его команда – это бывший детектив Энтони ДиНоззо, ныне бывший секретный агент Моссад - Зива Давид, судмедэксперт Эбби Шуто и компьютерный гений Тимоти МакГи

    Продолжительность: ~00: 43: 00 серия
    Качество видео: WEB-DLRip
    Перевод: Двухголосый закадровый, любительский -To4ka
    Автор перевода: Юлия Симчук
    Озвучка: Катерина Магура и Вячеслав Айсберг
    Видео: XviD, 720х400 (16: 9), ~1174 kb/s
    Аудио Rus: MPEG Layer 3, 48, 0 kHz, 2 ch, 128 kb/s - двухголосый закадровый
    Аудио Eng: MPEG Layer 3, 48, 0 kHz, 2 ch, 128 kb/s - оригинал
    Общее
    Полное имя : D: Морская полиция-Спецотдел (сезон любимого сериала 13) NCIS (2015) WEB-DLRip - To4kaNCIS.s13e01.WEB-DLRip.Rus.Eng.To4ka.avi
    Формат : AVI
    Формат/Информация : Audio Video Interleave
    Размер файла : 450 Мбайт
    Продолжительность : 43 м.
    Общий поток : 1444 Кбит/сек
    Программа кодирования : VirtualDubMod 1.6.0.0 SURROUND (build 2560/release)
    Библиотека кодирования : VirtualDubMod build 2560/release
    Видео
    Идентификатор : 0
    Формат : MPEG-4 Visual
    Профиль формата : Advanced Simple@L5
    Параметр BVOP формата : 1
    Параметр QPel формата : Нет
    Параметр GMC формата : Без точки перехода
    Параметр матрицы формата : Default (MPEG)
    Идентификатор кодека : XVID
    Идентификатор кодека/Подсказка : XviD
    Продолжительность : 43 м.
    Битрейт : 1174 Кбит/сек
    Ширина : 720 пикселей
    Высота : 400 пикселей
    Соотношение сторон : 16: 9
    Частота кадров : 23, 976 кадра/сек
    Цветовое пространство : YUV
    Субдискретизация насыщенности : 4: 2: 0
    Битовая глубина : 8 бит
    Тип развёртки : Прогрессивная
    Метод сжатия : С потерями
    Бит/(Пиксели*Кадры) : 0.170
    Размер потока : 366 Мбайт (81%)
    Библиотека кодирования : XviD 1.2.1 (UTC 2008-12-04)
    Аудио #1
    Идентификатор : 1
    Формат : MPEG Audio
    Версия формата : Version 1
    Профиль формата : Layer 3
    Режим : Joint stereo
    Расширение режима : MS Stereo
    Идентификатор кодека : 55
    Идентификатор кодека/Подсказка : MP3
    Продолжительность : 43 м.
    Вид битрейта : Постоянный
    Битрейт : 128 Кбит/сек
    Каналы : 2 канала
    Частота : 48, 0 КГц
    Метод сжатия : С потерями
    Размер потока : 39, 9 Мбайт (9%)
    Выравнивание : Соединение по промежуткам
    Продолжительность промежутка : 42 мс. (1, 00 видеокадр)
    Время предзагрузки промежутка : 504 мс.
    Аудио #2
    Идентификатор : 2
    Формат : MPEG Audio
    Версия формата : Version 1
    Профиль формата : Layer 3
    Режим : Joint stereo
    Расширение режима : MS Stereo
    Идентификатор кодека : 55
    Идентификатор кодека/Подсказка : MP3
    Продолжительность : 43 м.
    Вид битрейта : Постоянный
    Битрейт : 128 Кбит/сек
    Каналы : 2 канала
    Частота : 48, 0 КГц
    Метод сжатия : С потерями
    Размер потока : 39, 9 Мбайт (9%)
    Выравнивание : Соединение по промежуткам
    Продолжительность промежутка : 42 мс. (1, 00 видеокадр)
    Время предзагрузки промежутка : 504 мс.
    Библиотека кодирования : LAME3.99r
    Настройки программы : -m j -V 4 -q 2 -lowpass 17 -b 128


    Скриншоты для ознакомления




    Онлайн видео Морская полиция: Спецотдел



    Морская полиция: Спецотдел/NCIS: Naval Criminal Investigative Service (2015) WEB-DLRip (сезон 13, серии 1-14 из 24) To4ka (обновляемая)
    загрузка...
    Рейтинг →
     (голосов: 1, оценка 5/5, голосовать можно 1 раз )

    Другие торренты по теме:

  • Морская полиция: Новый Орлеан / NCIS: New Orleans (2014) HDTVRip [H.264 / 720p-LQ] [Сезон 1, Серия 1 из 24] (Обновляемая)
  • Морская полиция: Спецотдел / NCIS: Naval Criminal Investigative Service (2014) WEB-DLRip (сезон 12, серии 1 из ) To4ka (Обновляемая)
  • Морская полиция: Лос Анджелес / NCIS: Los Angeles (2014) WEB-DLRip (сезон 6, серии 1 из ) BaibaKo (обновляемая) скачать через торрент бесплатно
  • Морская полиция: Новый Орлеан / NCIS: New Orleans (2014) WEB-DLRip [серии 1-2 из 24] (Обновляемая) Kiitos
  • Морская полиция: Новый Орлеан / NCIS: New Orleans (2014) WEB-DLRip (сезон 1, серии 1 из ) BaibaKo (обновляемая)
  • Морская полиция: Лос Анджелес / NCIS: Los Angeles (2015) WEB-DLRip (сезон 7, серии 1 из ) BaibaKo (обновляемая) скачать через торрент бесплатно
  • Морская полиция: Спецотдел / NCIS: Naval Criminal Investigative Service (2015) HDTVRip (сезон 13, серии 1 из ) To4ka (обновляемая) скачать через торрент бесплатно
  • Морская полиция: Спецотдел / NCIS: Naval Criminal Investigative Service (2015) WEB-DLRip (сезон 13, серии 1-12 из 24) To4ka (обновляемая)


    • Комментарии (0):

      Информация

      Информация

        Посетители, находящиеся в группе Гости, не могут оставлять комментарии в данной новости.

        ↓ Меню




        ↓ Опрос

        Вы добавили сайт в закладки?
        Да
        Нет


        Top 10 за месяц (Фильмы)