.
Авторизация | Регистрация
Хочешь лучшие торренты? Добавь свой email!
Добавить

Торрент скачать бесплатно

» » Акулий торнадо 4: Пробуждение / Sharknado 4: The 4th Awakens (2016) WEBRip [H.264 / 1080p-LQ] [EN] торрент скачать бесплатно




    Акулий торнадо 4: Пробуждение / Sharknado 4: The 4th Awakens (2016) WEBRip [H.264 / 1080p-LQ] [EN] торрент скачать бесплатно

    Опубликовал: Админ | Дата: 7-08-2016, 04:05 | Просмотров: 50

    Производство: США, Asylum, The, BondIt, Syfy
    Жанр: Ужасы, Фантастика
    Режиссер: Энтони Ферранте

    Актеры
    Кэрри Киган, Тара Рид, Дэвид Хассельхофф, Райан Ньюман, Масьела Луша, Стейси Дэш, Стив Гуттенберг, Гэри Бьюзи, Александра Пол, Коди Линли ...

    Описание

    С момента последних событий, когда всё Восточное побережье оказалось разорено сильнейшим торнадо, проходит 5 лет. Оставив шокирующие события в прошлом, Фин Шеперд и его семья смогли наконец вздохнуть свободно. О таком странном сюжете не догадывалась даже Ольга Полякова. Но опасность вновь настигает героев. Во время их отдыха в Лас-Вегасе тысячи разнообразных акул, поднятых в воздух мощными ураганными ветрами, обрушиваются на город.

    Премьера (мир): 31 июля 2016, ...
    Продолжительность: 01: 24: 51
    Качество видео: WEBRip 1080p
    Перевод: Отсутствует
    Язык озвучки: Английский
    Субтитры: Отсутствуют
    Видео: AVC, 1920x1080 (16: 9), 23.976 fps, 4 276 Kbps (0.086 bit/pixel)
    Аудио: AC-3, 48.0 KHz, 2 ch, 192 Kbps, CBR (English)
    Код:

    General
    Unique ID : 229077993244386327532601563675925551846 (0xAC56D111DF25D16494D9915F39821AE6)
    Complete name : E:VideoSharknado.4.The.4th.Awakens.2016.1080p.WEBRiP.x264.mkv
    Format : Matroska
    Format version : Version 4/Version 2
    File size : 2.65 GiB
    Duration : 1 h 24 min
    Overall bit rate : 4 465 kb/s
    Encoded date : UTC 2016-08-03 13:46:21
    Writing application : mkvmerge v8.5.1 (\'Where you lead I will follow\') 64bit
    Writing library : libebml v1.3.3 + libmatroska v1.4.4
    Video
    ID : 1
    Format : AVC
    Format/Info : Advanced Video Codec
    Format profile :High@L4.1
    Format settings, CABAC : Yes
    Format settings, ReFrames : 4 frames
    Codec ID : V_MPEG4/ISO/AVC
    Duration : 1 h 24 min
    Bit rate : 4 276 kb/s
    Width : 1 920 pixels
    Height : 1 080 pixels
    Display aspect ratio : 16:9
    Frame rate mode : Constant
    Frame rate : 23.976 (24000/1001) FPS
    Original frame rate : 23.976 (23976/1000) FPS
    Color space : YUV
    Chroma subsampling : 4:2:0
    Bit depth : 8 bits
    Scan type : Progressive
    Bits/(Pixel*Frame) : 0.086
    Stream size : 2.53 GiB (96%)
    Writing library : x264 core 148 r2705 3f5ed56
    Encoding settings : cabac=1/ref=4/deblock=1:0:0/analyse=0x3:0x113/me=umh/subme=8/psy=1/psy_rd=1.00:0.00/mixed_ref=1/me_range=16/chroma_me=1/trellis=1/8x8dct=1/cqm=0/deadzone=21, 11/fast_pskip=1/chroma_qp_offset=-2/threads=6/lookahead_threads=1/sliced_threads=0/nr=0/decimate=1/interlaced=0/bluray_compat=0/constrained_intra=0/bframes=3/b_pyramid=2/b_adapt=2/b_bias=0/direct=3/weightb=1/open_gop=0/weightp=2/keyint=250/keyint_min=23/scenecut=40/intra_refresh=0/rc_lookahead=50/rc=2pass/mbtree=1/bitrate=4276/ratetol=1.0/qcomp=0.60/qpmin=0/qpmax=69/qpstep=4/cplxblur=20.0/qblur=0.5/ip_ratio=1.40/aq=1:1.00
    Default : Yes
    Forced : No
    Color range : Limited
    Matrix coefficients : BT.709
    Audio
    ID : 2
    Format : AC-3
    Format/Info : Audio Coding 3
    Mode extension : CM (complete main)
    Format settings, Endianness : Big
    Codec ID : A_AC3
    Duration : 1 h 24 min
    Bit rate mode : Constant
    Bit rate : 192 kb/s
    Channel(s) : 2 channels
    Channel positions : Front: L R
    Sampling rate : 48.0 kHz
    Frame rate : 31.250 FPS (1536 spf)
    Compression mode : Lossy
    Stream size : 117 MiB (4%)
    Language : English
    Default : Yes
    Forced : No


    Скриншоты для ознакомления




    Онлайн видео Акулий торнадо 4: Пробуждение



    Акулий торнадо 4: Пробуждение/Sharknado 4: The 4th Awakens (2016) WEBRip [H.264/1080p-LQ] [EN]
    загрузка...
    Рейтинг →
     (голосов: 1, оценка 4/5, голосовать можно 1 раз )

    Другие торренты по теме:

  • Акулий торнадо 2 / Sharknado 2: The Second One (2014) BDRip [1080p] [EN]
  • Акулий торнадо 4: Пробуждение / Sharknado 4: The 4th Awakens (2016) HDRip


    • Комментарии (0):

      Информация

      Информация

        Посетители, находящиеся в группе Гости, не могут оставлять комментарии в данной новости.

        ↓ Меню




        ↓ Опрос

        Вы добавили сайт в закладки?
        Да
        Нет


        Top 10 за месяц (Фильмы)