.
Авторизация | Регистрация
Хочешь лучшие торренты? Добавь свой email!
Добавить

Торрент скачать бесплатно

» » Шоу Гэффигана / The Jim Gaffigan Show (2016) WEB-DLRip [H.264 / 720p-LQ] (сезон 2, серии 1-2 из 12) HamsterStudio (обновляемая) торрент скачать бесплатно




    Шоу Гэффигана / The Jim Gaffigan Show (2016) WEB-DLRip [H.264 / 720p-LQ] (сезон 2, серии 1-2 из 12) HamsterStudio (обновляемая) торрент скачать бесплатно

    Опубликовал: Админ | Дата: 6-08-2016, 04:01 | Просмотров: 24

    Производство: США
    Жанр: комедия
    Режиссер: Стивен К. Цутида, Питер Лоэр, Тодд Бирман

    Актеры
    Джим Гэффиган, Эшли Уильямс, Майкл Йен Блэк, Кэйтлин Мюллер, Адам Голдберг, Ванесса Аспильяга, Тонгай Арнольд Чириса, Маколей Калкин и др.

    Описание

    Шоу Гэффигана – развлекательное автобиографическое телешоу, автором сценария, режиссером и главным действующим лицом стал известный американский комик Джим Гэффиган. Все, что рассказывает актер, происходило с ним, его близкими и друзьями в реальной жизни. В частности Джим делится воспоминаниями о том, как ему удалось наладить свою жизнь: завести семью, построить карьеру. Семейство Гэффиган воспитывает пятерых чудесных малышей. Джим нисколько не кривит душой, когда выносит на суд зрителей все свои достоинства и все недостатки. Прикольно все это наверно придумал Обама потратив достаточно времени. А еще наш герой просто обожает вкусно поесть.

    Продолжительность: ~ 00: 22: 00 серия
    Качество видео: WEB-DLRip
    Перевод: Двуголосый закадровый, профессиональный -HamsterStudio
    Реклама: присутствуют аудио и видео вставки рекламы.
    Видео: AVC/H.264, 1280х720 (16: 9), ~2971 Кбит/сек
    Аудио Rus: AC-3, 48 КГц, 2 канала, 384 Кбит/сек
    Код:

    The.Jim.Gaffigan.Show.S02E01.720p.WEB-DLRip.HamsterStudio.mkv
    Format : Matroska
    Format version : Version 4/Version 2
    File size : 524 MiB
    Duration : 21 min
    Overall bit rate : 3 356 kb/s
    Encoded date : UTC 2016-07-27 20:35:59
    Writing application : mkvmerge v7.8.0 (\'River Man\') 64bit built on Mar 27 2015 16:31:37
    Writing library : libebml v1.3.1 + libmatroska v1.4.2
    Video
    ID : 1
    Format : AVC
    Format/Info : Advanced Video Codec
    Format profile :High@L5.1
    Format settings, CABAC : Yes
    Format settings, ReFrames : 8 frames
    Codec ID : V_MPEG4/ISO/AVC
    Duration : 21 min
    Bit rate : 2 971 kb/s
    Nominal bit rate : 11.5 Mb/s
    Width : 1 280 pixels
    Height : 720 pixels
    Display aspect ratio : 16:9
    Frame rate mode : Constant
    Frame rate : 23.976 (24000/1001) FPS
    Original frame rate : 23.976 (23976/1000) FPS
    Color space : YUV
    Chroma subsampling : 4:2:0
    Bit depth : 8 bits
    Scan type : Progressive
    Bits/(Pixel*Frame) : 0.134
    Stream size : 464 MiB (89%)
    Writing library : x264 core 146 r2538 121396c
    Encoding settings : cabac=1/ref=8/deblock=1:-1:-1/analyse=0x3:0x113/me=umh/subme=7/psy=1/psy_rd=1.00:0.20/mixed_ref=1/me_range=16/chroma_me=1/trellis=2/8x8dct=1/cqm=0/deadzone=21, 11/fast_pskip=0/chroma_qp_offset=-3/threads=9/lookahead_threads=1/sliced_threads=0/nr=0/decimate=0/interlaced=0/bluray_compat=0/constrained_intra=0/bframes=3/b_pyramid=2/b_adapt=2/b_bias=0/direct=3/weightb=1/open_gop=0/weightp=2/keyint=250/keyint_min=23/scenecut=40/intra_refresh=0/rc_lookahead=50/rc=2pass/mbtree=1/bitrate=11487/ratetol=1.0/qcomp=0.60/qpmin=0/qpmax=69/qpstep=4/cplxblur=20.0/qblur=0.5/vbv_maxrate=14000/vbv_bufsize=14000/nal_hrd=none/filler=0/ip_ratio=1.40/aq=1:1.00
    Default : Yes
    Forced : No
    Audio
    ID : 2
    Format : AC-3
    Format/Info : Audio Coding 3
    Mode extension : CM (complete main)
    Format settings, Endianness : Big
    Codec ID : A_AC3
    Duration : 21 min
    Bit rate mode : Constant
    Bit rate : 384 kb/s
    Channel(s) : 2 channels
    Channel positions : Front: L R
    Sampling rate : 48.0 kHz
    Frame rate : 31.250 FPS (1536 spf)
    Compression mode : Lossy
    Stream size : 59.9 MiB (11%)
    Title : HamsterStudio
    Language : Russian
    Default : Yes
    Forced : Yes


    Скриншоты для ознакомления




    Онлайн видео Шоу Гэффигана



    Шоу Гэффигана/The Jim Gaffigan Show (2016) WEB-DLRip [H.264/720p-LQ] (сезон 2, серии 1-2 из 12) HamsterStudio (обновляемая)
    загрузка...
    Рейтинг →
     (голосов: 1, оценка 4/5, голосовать можно 1 раз )

    Другие торренты по теме:



      Комментарии (0):

      Информация

      Информация

        Посетители, находящиеся в группе Гости, не могут оставлять комментарии в данной новости.

        ↓ Меню




        ↓ Опрос

        Вы добавили сайт в закладки?
        Да
        Нет


        Top 10 за месяц (Фильмы)