.
Авторизация | Регистрация
Хочешь лучшие торренты? Добавь свой email!
Добавить

Торрент скачать бесплатно

» » Оно / It Follows (2014) BDRip [H.264 / 1080p-LQ] торрент скачать бесплатно




    Оно / It Follows (2014) BDRip [H.264 / 1080p-LQ] торрент скачать бесплатно

    Опубликовал: Админ | Дата: 3-08-2016, 04:01 | Просмотров: 21

    Производство: США/Northern Lights Films, Animal Kingdom, Two Flints
    Жанр: Ужасы, Триллер
    Режиссер: Дэвид Роберт Митчелл

    Актеры
    Майка Монро, Кейр Гилкрист, Оливия Луккарди, Лили Сепе, Дэниэл Дзоватто, Джейк Вири, Бэйли Спрай, Дэбби Уильямс, Руби Харрис, Леиза Пулидо, Эли Бардха, Ингрид Мортимер

    Описание

    После сексуальной связи 19-летнюю девушку по имени Джей начинают мучать странные видения и непреодолимое чувство того, что кто-то или что-то за ней следит...

    Возраст: 18+ (зрителям, достигшим 18 лет. запрещено для детей)
    Рейтинг MPAA: R (лицам до 17 лет обязательно присутствие взрослого)
    Дата выхода DVD релиза: 6 августа 2015, CD Land
    Релиз от: R.G. Goldenshara
    Продолжительность: 01: 40: 13
    Качество видео: BDRip (1080p-LQ)
    Перевод: Дублированный (iTunes)
    Язык субтитров: Русский, английский
    Вид субтитров: Вшитые (отключаемые)
    Видео: AVC/H.264, 1920x800 (2.40: 1), ~5859 kbps, 23, 976 fps
    Аудио: AC3, 6 ch, 48 kHz, 384 kbps, CBR
    Код:

    General
    Unique ID : 242074853278870833386742826621334019251 (0xB61DEBBE3894AD06B29615DC7FB95CB3)
    Complete name : D:Мои рипыОно.2014.BDRip.1080p.DUB.mkv
    Format : Matroska
    Format version : Version 4/Version 2
    File size : 4.37 GiB
    Duration : 1h 40mn
    Overall bit rate : 6 242 Kbps
    Movie name : It Follows. 2014
    Encoded date : UTC 2015-09-28 08:23:36
    Writing application : mkvmerge v6.3.0 (\'You can\'t stop me!\') built on Jun 28 2013 20:09:41
    Writing library : libebml v1.3.0 + libmatroska v1.4.0
    Video
    ID : 1
    Format : AVC
    Format/Info : Advanced Video Codec
    Format profile :High@L4.1
    Format settings, CABAC : Yes
    Format settings, ReFrames : 5 frames
    Codec ID : V_MPEG4/ISO/AVC
    Duration : 1h 40mn
    Bit rate : 5 859 Kbps
    Width : 1 920 pixels
    Height : 800 pixels
    Display aspect ratio : 2.40:1
    Frame rate mode : Constant
    Frame rate : 23.976 fps
    Color space : YUV
    Chroma subsampling : 4:2:0
    Bit depth : 8 bits
    Scan type : Progressive
    Bits/(Pixel*Frame) : 0.159
    Stream size : 4.01 GiB (92%)
    Writing library : x264 core 130 r2273 b3065e6
    Encoding settings : cabac=1/ref=5/deblock=1:-3:-3/analyse=0x3:0x133/me=umh/subme=11/psy=1/psy_rd=1.00:0.15/mixed_ref=1/me_range=48/chroma_me=1/trellis=2/8x8dct=1/cqm=0/deadzone=21, 11/fast_pskip=0/chroma_qp_offset=-4/threads=6/lookahead_threads=1/sliced_threads=0/nr=0/decimate=1/interlaced=0/bluray_compat=0/constrained_intra=0/bframes=8/b_pyramid=2/b_adapt=2/b_bias=0/direct=2/weightb=1/open_gop=0/weightp=2/keyint=250/keyint_min=23/scenecut=40/intra_refresh=0/rc=2pass/mbtree=0/bitrate=5859/ratetol=1.0/qcomp=0.80/qpmin=0/qpmax=69/qpstep=4/cplxblur=20.0/qblur=0.5/ip_ratio=2.80/pb_ratio=1.30/aq=2:1.00
    Language : English
    Default : Yes
    Forced : No
    Color primaries : Generic film
    Matrix coefficients : YCgCo
    Audio
    ID : 2
    Format : AC-3
    Format/Info : Audio Coding 3
    Mode extension : CM (complete main)
    Format settings, Endianness : Big
    Codec ID : A_AC3
    Duration : 1h 40mn
    Bit rate mode : Constant
    Bit rate : 384 Kbps
    Channel(s) : 6 channels
    Channel positions : Front: L C R, Side: L R, LFE
    Sampling rate : 48.0 KHz
    Bit depth : 16 bits
    Compression mode : Lossy
    Stream size : 275 MiB (6%)
    Title : Дубляж (iTunes)
    Language : Russian
    Default : Yes
    Forced : No
    Text #1
    ID : 3
    Format : UTF-8
    Codec ID : S_TEXT/UTF8
    Codec ID/Info : UTF-8 Plain Text
    Title : Full
    Language : Russian
    Default : No
    Forced : No
    Text #2
    ID : 4
    Format : UTF-8
    Codec ID : S_TEXT/UTF8
    Codec ID/Info : UTF-8 Plain Text
    Title : Full
    Language : English
    Default : No
    Forced : No
    Menu
    00:00:00.000 : en:Chapter 01
    00:03:53.024 : en:Chapter 02
    00:08:46.901 : en:Chapter 03
    00:13:58.671 : en:Chapter 04
    00:22:05.115 : en:Chapter 05
    00:27:20.930 : en:Chapter 06
    00:32:12.513 : en:Chapter 07
    00:44:38.467 : en:Chapter 08
    00:49:14.993 : en:Chapter 09
    00:53:58.485 : en:Chapter 10
    01:02:48.055 : en:Chapter 11
    01:07:45.019 : en:Chapter 12
    01:16:13.485 : en:Chapter 13
    01:26:19.007 : en:Chapter 14
    01:31:18.514 : en:Chapter 15
    01:35:42.194 : en:Chapter 16


    Скриншоты для ознакомления




    Онлайн видео Оно



    Оно/It Follows (2014) BDRip [H.264/1080p-LQ]
    загрузка...
    Рейтинг →
     (голосов: 1, оценка 4/5, голосовать можно 1 раз )

    Другие торренты по теме:

  • Оно / It Follows (2014) BDRip [H.264 / 1080p] скачать через торрент бесплатно
  • Оно / It Follows (2014) BDRip [H.264 / 720p] скачать через торрент бесплатно
  • Оно / It Follows (2014) BDRip [H.264] [MP4|960x400] скачать через торрент бесплатно
  • Оно / It Follows (2014) BDRip [H.264 / 1080p] скачать через торрент бесплатно
  • Оно / It Follows (2014) BDRip [H.264 / 1080p] [Line] скачать через торрент бесплатно
  • Оно / It Follows (2014) BDRip [H.264 / 1080p] скачать через торрент бесплатно


    • Комментарии (0):

      Информация

      Информация

        Посетители, находящиеся в группе Гости, не могут оставлять комментарии в данной новости.

        ↓ Меню




        ↓ Опрос

        Вы добавили сайт в закладки?
        Да
        Нет


        Top 10 за месяц (Фильмы)