.
Авторизация | Регистрация
Хочешь лучшие торренты? Добавь свой email!
Добавить

Торрент скачать бесплатно

» » Тайный город / Город Тайн / Secret City (2016) HDTVRip [H.264 / 720p-LQ] (сезон 1, серии 1-2 из 6) NewStudio (обновляемая) торрент скачать бесплатно




    Тайный город / Город Тайн / Secret City (2016) HDTVRip [H.264 / 720p-LQ] (сезон 1, серии 1-2 из 6) NewStudio (обновляемая) торрент скачать бесплатно

    Опубликовал: Админ | Дата: 3-08-2016, 04:01 | Просмотров: 36

    Производство: Австралия
    Жанр: триллер
    Режиссер: Эмма Фриман

    Актеры
    Анна Торв, Дэниэл Уилли, Джеки Уивер, Дэймон Херриман, Алан Дэйл, Алекс Димитриадес, Евгения Йуан, Мэтт Зеремс, Хув Хиггинсон, Маркус Грэхэм и др.

    Описание

    Главная героиня сериала Город Тайн — корреспондент Гарриет Данкли, затянутая в общественно-политическое столкновение Китая и Соединенных Штатов Америки, проводит расследование таинственного давнишнего дела, вследствие которого были осуществлены пробы заказного смертоубийства. Данкли выясняет, что в Канберре, австралийской столице, в действительности имеется определённый тайный город, в котором влиятельные коррупционеры-госслужащие состязаются друг с дружкой в правлении.

    Дата мировой премьеры: 5 июня 2016
    Продолжительность: ~00: 46: 00 серия
    Качество видео: HDTVRip
    Перевод: Многоголосый закадровый, профессиональный -NewStudio
    Реклама: присутствуют аудио и текстовые вставки рекламы.
    Видео: AVC/H.264, 1276x642, ~1863 kbps
    Аудио Rus: AC-3, 48, 0 kHz, 2 ch, 192 kb/s — многоголосый закадровый
    Аудио Eng: AAC, 48, 0 kHz, 2 ch, 120 kb/s — оригинал
    Код:

    Secret.City.s01e01.HDTV.720p.NewStudio.TV.mkv
    Format : Matroska
    Format version : Version 4/Version 2
    File size : 710 MiB
    Duration : 45 min
    Overall bit rate : 2 177 kb/s
    Encoded date : UTC 2016-08-01 23:17:09
    Writing application : mkvmerge v8.2.0 (\'World of Adventure\') 32bit
    Writing library : libebml v1.3.1 + libmatroska v1.4.2
    Video
    ID : 1
    Format : AVC
    Format/Info : Advanced Video Codec
    Format profile :High@L4.1
    Format settings, CABAC : Yes
    Format settings, ReFrames : 5 frames
    Codec ID : V_MPEG4/ISO/AVC
    Duration : 45 min
    Bit rate : 1 863 kb/s
    Width : 1 276 pixels
    Height : 642 pixels
    Display aspect ratio : 1.988
    Frame rate mode : Constant
    Frame rate : 25.000 FPS
    Color space : YUV
    Chroma subsampling : 4:2:0
    Bit depth : 8 bits
    Scan type : Progressive
    Bits/(Pixel*Frame) : 0.091
    Stream size : 608 MiB (86%)
    Writing library : x264 core 148 r2692 64f4e24
    Encoding settings : cabac=1/ref=5/deblock=1:0:0/analyse=0x3:0x113/me=umh/subme=8/psy=1/psy_rd=1.00:0.00/mixed_ref=1/me_range=16/chroma_me=1/trellis=1/8x8dct=1/cqm=0/deadzone=21, 11/fast_pskip=1/chroma_qp_offset=-2/threads=12/lookahead_threads=2/sliced_threads=0/nr=0/decimate=1/interlaced=0/bluray_compat=0/constrained_intra=0/bframes=3/b_pyramid=2/b_adapt=2/b_bias=0/direct=3/weightb=1/open_gop=0/weightp=2/keyint=250/keyint_min=25/scenecut=40/intra_refresh=0/rc_lookahead=50/rc=crf/mbtree=1/crf=19.0/qcomp=0.60/qpmin=0/qpmax=69/qpstep=4/ip_ratio=1.40/aq=1:1.00
    Default : Yes
    Forced : No
    Color range : Limited
    Matrix coefficients : BT.709
    Audio #1
    ID : 2
    Format : AC-3
    Format/Info : Audio Coding 3
    Mode extension : CM (complete main)
    Format settings, Endianness : Big
    Codec ID : A_AC3
    Duration : 45 min
    Bit rate mode : Constant
    Bit rate : 192 kb/s
    Channel(s) : 2 channels
    Channel positions : Front: L R
    Sampling rate : 48.0 kHz
    Frame rate : 31.250 FPS (1536 spf)
    Compression mode : Lossy
    Stream size : 62.6 MiB (9%)
    Title : NewStudio.TV
    Language : Russian
    Default : Yes
    Forced : No
    Audio #2
    ID : 3
    Format : AAC
    Format/Info : Advanced Audio Codec
    Format profile : LC
    Codec ID : A_AAC
    Duration : 45 min
    Bit rate : 120 kb/s
    Channel(s) : 2 channels
    Channel positions : Front: L R
    Sampling rate : 48.0 kHz
    Frame rate : 46.875 FPS (1024 spf)
    Compression mode : Lossy
    Delay relative to video : 9 ms
    Stream size : 39.1 MiB (6%)
    Language : English
    Default : No
    Forced : No


    Скриншоты для ознакомления




    Онлайн видео Тайный город



    Тайный город/Город Тайн/Secret City (2016) HDTVRip [H.264/720p-LQ] (сезон 1, серии 1-2 из 6) NewStudio (обновляемая)
    загрузка...
    Рейтинг →
     (голосов: 1, оценка 5/5, голосовать можно 1 раз )

    Другие торренты по теме:

  • Тайный город / Город Тайн / Секретный город / Secret City (2016) HDTVRip (сезон 1, серии 1-2 из 6) NewStudio (обновляемая)
  • Секретный город / Тайный город / Secret City (2016) HDTV [H.264 / 720p-LQ] (сезон 1, серии 1-2 из 6) SunshineStudio (Обновляемая)
  • Тайный город / Секретный город / Secret City (2016) HDTVRip [H.264 / 720p-LQ] (сезон 1, серии 1-4 из 6) BaibaKo (обновляемая)
  • Тайный город 2 (2014) SATRip [2 сезон: 1-2 серия из 8](Обновляемая)


    • Комментарии (0):

      Информация

      Информация

        Посетители, находящиеся в группе Гости, не могут оставлять комментарии в данной новости.

        ↓ Меню




        ↓ Опрос

        Вы добавили сайт в закладки?
        Да
        Нет


        Top 10 за месяц (Фильмы)