.
Авторизация | Регистрация
Хочешь лучшие торренты? Добавь свой email!
Добавить

Торрент скачать бесплатно

» » Энджи Трайбека / Angie Tribeca (2016) WEB-DLRip (сезон 2, серии 1-8 из 10) IDEAFILM (обновляемая) торрент скачать бесплатно




    Энджи Трайбека / Angie Tribeca (2016) WEB-DLRip (сезон 2, серии 1-8 из 10) IDEAFILM (обновляемая) торрент скачать бесплатно

    Опубликовал: Админ | Дата: 2-08-2016, 04:01 | Просмотров: 53

    Производство: США
    Жанр: комедия, криминал, детектив
    Режиссер: Стив Карелл, Марта Кулидж, Ричи Кин

    Актеры
    Рашида Джонс, Джер Бернс, Деон Коул, Хэйз МакАртур, Эндри Вермелен, Андреас Виганд, Бретт Гилберт, Тони Френч, Гарри Йи, Чиди Аджуфо и др.

    Описание

    Комедийная история жизни Энджи Трайбеки, которая вот уже десять лет служит в элитном подразделении полиции Лос-Анджелеса.

    Продолжительность: ~ 00: 22: 00 серия
    Качество видео: WEB-DLRip
    Перевод: Многоголосый закадровый, профессиональный -IDEAFILM
    Реклама: присутствуют аудио, видео вставки рекламы.
    Видео: XVID, 720x400 (16: 9), ~1499 kbps
    Аудио: AC-3, 6 ch, 384 kbps - многоголосый закадровый
    Код:

    Angie.Tribeca.S02E01.WEB-DLRip-IDEAFILM.avi
    Format : AVI
    Format/Info : Audio Video Interleave
    File size : 299 MiB
    Duration : 22 min
    Overall bit rate : 1 892 kb/s
    Writing application : VirtualDubMod 1.5.10.3 |www.virtualdub-fr.org|| (build 2550/release)
    Writing library : VirtualDubMod build 2550/release
    Video
    ID : 0
    Format : MPEG-4 Visual
    Format profile : Advanced Simple@L5
    Format settings, BVOP : 2
    Format settings, QPel : No
    Format settings, GMC : No warppoints
    Format settings, Matrix : Default (MPEG)
    Codec ID : XVID
    Codec ID/Hint : XviD
    Duration : 22 min
    Bit rate : 1 499 kb/s
    Width : 720 pixels
    Height : 400 pixels
    Display aspect ratio : 16:9
    Frame rate : 23.976 (24000/1001) FPS
    Color space : YUV
    Chroma subsampling : 4:2:0
    Bit depth : 8 bits
    Scan type : Progressive
    Compression mode : Lossy
    Bits/(Pixel*Frame) : 0.217
    Stream size : 237 MiB (79%)
    Writing library : XviD 1.2.1 (UTC 2008-12-04)
    Audio
    ID : 1
    Format : AC-3
    Format/Info : Audio Coding 3
    Mode extension : CM (complete main)
    Format settings, Endianness : Big
    Codec ID : 2000
    Duration : 22 min
    Bit rate mode : Constant
    Bit rate : 384 kb/s
    Channel(s) : 6 channels
    Channel positions : Front: L C R, Side: L R, LFE
    Sampling rate : 48.0 kHz
    Frame rate : 31.250 FPS (1536 spf)
    Compression mode : Lossy
    Stream size : 60.6 MiB (20%)
    Alignment : Split accross interleaves
    Interleave, duration : 42 ms (1.00 video frame)
    Interleave, preload duration : 500 ms


    Скриншоты для ознакомления




    Онлайн видео Энджи Трайбека



    Энджи Трайбека/Angie Tribeca (2016) WEB-DLRip (сезон 2, серии 1-8 из 10) IDEAFILM (обновляемая)
    загрузка...
    Рейтинг →
     (голосов: 1, оценка 5/5, голосовать можно 1 раз )

    Другие торренты по теме:

  • Энджи Трайбека / Angie Tribeca (2016) HDTV [H.264 / 720p-LQ] (сезон 1, серии 1-10 из 10) IDEAFILM
  • Энджи Трайбека / Angie Tribeca (2016) WEB-DL [H.264 / 720p-LQ] (сезон 2, серии 1-2 из 10) IDEAFILM (обновляемая)


    • Комментарии (0):

      Информация

      Информация

        Посетители, находящиеся в группе Гости, не могут оставлять комментарии в данной новости.

        ↓ Меню




        ↓ Опрос

        Вы добавили сайт в закладки?
        Да
        Нет


        Top 10 за месяц (Фильмы)