.
Авторизация | Регистрация
Хочешь лучшие торренты? Добавь свой email!
Добавить

Торрент скачать бесплатно

» » Братья из Гримсби / Grimsby (2016) BDRemux [H.264 / 1080p] торрент скачать бесплатно




    Братья из Гримсби / Grimsby (2016) BDRemux [H.264 / 1080p] торрент скачать бесплатно

    Опубликовал: Админ | Дата: 1-08-2016, 04:01 | Просмотров: 48

    Производство: Великобритания, Австралия, Big Talk Productions, Columbia Pictures, Four by Two Films, LStar Capital
    Жанр: Боевик, Комедия
    Режиссер: Луи Летерье

    Актеры
    Саша Барон Коэн, Марк Стронг, Ребел Уилсон, Пенелопа Крус, Айла Фишер, Габури Сидибе, Аннабелль Уоллис, Иэн МакШейн, Дэвид Хэрвуд, Рикки Томлинсон

    Описание

    Сверхсекретная операция, которую выполняет образцовый спецагент, с треском провалена из-за некстати свалившегося на его голову неадекватного брата — оголтелого футбольного фаната и полного беспредельщика. Теперь герою предстоит спасти свою жизнь и вдобавок планету от нависшей над ней угрозы — практически невыполнимая задача в тандеме с вновь приобретенным родственником.

    Возраст: 18+ (зрителям, достигшим 18 лет. запрещено для детей)
    Рейтинг MPAA: R (лицам до 17 лет обязательно присутствие взрослого)
    Дата мировой премьеры: 24 февраля 2016
    Дата российской премьеры: 10 марта 2016, WDSSPR
    Продолжительность: 01: 23: 14
    Качество видео: BDRemux
    Перевод: Дублированный (Лицензия BD CEE), Авторский (одноголосый, закадровый) Вячеслав Котов
    Вид субтитров: Вшитые отключаемые
    Язык субтитров: Русский, Английский
    Видео: AVC/H.264, 1920x1080p, (16: 9), 24.9 Mbps, 23, 976 fps
    Аудио: AC3, 6 ch, 640 kbps - Русский, Дубляж
    Аудио: AC3, 6 ch, 640 kbps - Русский, Вячеслав Котов
    Аудио: DTS-HD MA, 6 ch, 2354 kbps - Русский, Вячеслав Котов
    Аудио: DTS-HD MA, 6 ch, 2312 kbps - Английский
    Код:

    General
    Unique ID : 208906644218897798323663726576382847926 (0x9D29F4C771794C6A85756B71D8352BB6)
    Complete name : G:VideoGrimsby.2016.D.AVO.BDREMUX.1080p.ExKinoRay.mkv
    Format : Matroska
    Format version : Version 4/Version 2
    File size : 17.9 GiB
    Duration : 1h 23mn
    Overall bit rate mode : Variable
    Overall bit rate : 30.8 Mbps
    Movie name : Grimsby.2016.D.AVO.BDREMUX.1080p.ExKinoRay
    Encoded date : UTC 2016-07-24 06:31:26
    Writing application : mkvmerge v8.3.0 (\'Over the Horizon\') 64bit
    Writing library : libebml v1.3.1 + libmatroska v1.4.2
    Video
    ID : 1
    Format : AVC
    Format/Info : Advanced Video Codec
    Format profile :High@L4.1
    Format settings, CABAC : Yes
    Format settings, ReFrames : 2 frames
    Format settings, GOP : M=1, N=10
    Codec ID : V_MPEG4/ISO/AVC
    Duration : 1h 23mn
    Bit rate mode : Variable
    Bit rate : 24.9 Mbps
    Width : 1 920 pixels
    Height : 1 080 pixels
    Display aspect ratio : 16:9
    Frame rate mode : Constant
    Frame rate : 23.976 (24000/1001) fps
    Color space : YUV
    Chroma subsampling : 4:2:0
    Bit depth : 8 bits
    Scan type : Progressive
    Bits/(Pixel*Frame) : 0.500
    Stream size : 14.5 GiB (81%)
    Language : English
    Default : Yes
    Forced : No
    Audio #1
    ID : 2
    Format : AC-3
    Format/Info : Audio Coding 3
    Mode extension : CM (complete main)
    Format settings, Endianness : Big
    Codec ID : A_AC3
    Duration : 1h 23mn
    Bit rate mode : Constant
    Bit rate : 640 Kbps
    Channel(s) : 6 channels
    Channel positions : Front: L C R, Side: L R, LFE
    Sampling rate : 48.0 KHz
    Frame rate : 31.250 fps (1536 spf)
    Compression mode : Lossy
    Stream size : 380 MiB (2%)
    Title : DUB [Blu-Ray CEE]
    Language : Russian
    Default : Yes
    Forced : No
    Audio #2
    ID : 3
    Format : AC-3
    Format/Info : Audio Coding 3
    Mode extension : CM (complete main)
    Format settings, Endianness : Big
    Codec ID : A_AC3
    Duration : 1h 23mn
    Bit rate mode : Constant
    Bit rate : 640 Kbps
    Channel(s) : 6 channels
    Channel positions : Front: L C R, Side: L R, LFE
    Sampling rate : 48.0 KHz
    Frame rate : 31.250 fps (1536 spf)
    Compression mode : Lossy
    Stream size : 381 MiB (2%)
    Title : AVO-AC3 [V.Kotov]
    Language : Russian
    Default : No
    Forced : No
    Audio #3
    ID : 4
    Format : DTS
    Format/Info : Digital Theater Systems
    Format profile : MA/Core
    Mode : 16
    Format settings, Endianness : Big
    Codec ID : A_DTS
    Duration : 1h 23mn
    Bit rate mode : Variable/Constant
    Bit rate : 2 354 Kbps/1 509 Kbps
    Channel(s) : 6 channels
    Channel positions : Front: L C R, Side: L R, LFE
    Sampling rate : 48.0 KHz
    Frame rate : 93.750 fps (512 spf)
    Bit depth : 16 bits
    Compression mode : Lossless/Lossy
    Stream size : 1.37 GiB (8%)
    Title : AVO [V.Kotov]
    Language : Russian
    Default : No
    Forced : No
    Audio #4
    ID : 5
    Format : DTS
    Format/Info : Digital Theater Systems
    Format profile : MA/Core
    Mode : 16
    Format settings, Endianness : Big
    Codec ID : A_DTS
    Duration : 1h 23mn
    Bit rate mode : Variable/Constant
    Bit rate : 2 312 Kbps/1 509 Kbps
    Channel(s) : 6 channels
    Channel positions : Front: L C R, Side: L R, LFE
    Sampling rate : 48.0 KHz
    Frame rate : 93.750 fps (512 spf)
    Bit depth : 16 bits
    Compression mode : Lossless/Lossy
    Stream size : 1.34 GiB (8%)
    Title : Original
    Language : English
    Default : No
    Forced : No
    Text #1
    ID : 6
    Format : UTF-8
    Codec ID : S_TEXT/UTF8
    Codec ID/Info : UTF-8 Plain Text
    Duration : 1h 15mn
    Bit rate : 3 bps
    Count of elements : 42
    Stream size : 1.91 KiB (0%)
    Title : Forced
    Language : Russian
    Default : Yes
    Forced : No
    Text #2
    ID : 7
    Format : UTF-8
    Codec ID : S_TEXT/UTF8
    Codec ID/Info : UTF-8 Plain Text
    Duration : 1h 21mn
    Bit rate : 100 bps
    Count of elements : 1122
    Stream size : 60.3 KiB (0%)
    Title : Full
    Language : Russian
    Default : No
    Forced : No
    Text #3
    ID : 8
    Format : UTF-8
    Codec ID : S_TEXT/UTF8
    Codec ID/Info : UTF-8 Plain Text
    Duration : 1h 21mn
    Bit rate : 57 bps
    Count of elements : 1062
    Stream size : 34.6 KiB (0%)
    Title : Full
    Language : English
    Default : No
    Forced : No
    Text #4
    ID : 9
    Format : UTF-8
    Codec ID : S_TEXT/UTF8
    Codec ID/Info : UTF-8 Plain Text
    Duration : 1h 22mn
    Bit rate : 69 bps
    Count of elements : 1382
    Stream size : 41.9 KiB (0%)
    Title : SDH
    Language : English
    Default : No
    Forced : No
    Menu
    00:00:00.000 : en:00:00:00.000
    00:06:54.331 : en:00:06:54.331
    00:11:00.994 : en:00:11:00.994
    00:16:25.735 : en:00:16:25.735
    00:21:37.630 : en:00:21:37.630
    00:26:43.727 : en:00:26:43.727
    00:31:46.863 : en:00:31:46.863
    00:36:48.706 : en:00:36:48.706
    00:41:57.056 : en:00:41:57.056
    00:46:54.979 : en:00:46:54.979
    00:52:19.595 : en:00:52:19.595
    00:57:28.487 : en:00:57:28.487
    01:01:27.851 : en:01:01:27.851
    01:06:16.139 : en:01:06:16.139
    01:11:52.099 : en:01:11:52.099
    01:16:25.873 : en:01:16:25.873


    Скриншоты для ознакомления




    Онлайн видео Братья из Гримсби



    Братья из Гримсби/Grimsby (2016) BDRemux [H.264/1080p]
    загрузка...
    Рейтинг →
     (голосов: 1, оценка 4/5, голосовать можно 1 раз )

    Другие торренты по теме:

  • Братья из Гримсби / Grimsby (2016) WEB-DL [H.264 / 720p-LQ] [EN / EN Sub]
  • Братья из Гримсби / Grimsby (2016) WEB-DLRip [Line]
  • Братья из Гримсби / Grimsby (2016) WEB-DL [H.264 / 1080p-LQ] [Line]
  • Братья из Гримсби / Grimsby (2016) WEB-DLRip [576p] iPad [Line]
  • Братья из Гримсби / Grimsby (2016) AC3 5.1 [hand made]
  • Братья из Гримсби / Grimsby / The Brothers Grimsby (2016) BDRip [H.264 / 720p] [EN / EN Sub]
  • Братья из Гримсби / Grimsby / The Brothers Grimsby (2016) BDRip [H.264 / 1080p] [EN / EN Sub]
  • Братья из Гримсби / Grimsby / The Brothers Grimsby (2016) BDRemux [H.264 / 1080p]


    • Комментарии (0):

      Информация

      Информация

        Посетители, находящиеся в группе Гости, не могут оставлять комментарии в данной новости.

        ↓ Меню




        ↓ Опрос

        Вы добавили сайт в закладки?
        Да
        Нет


        Top 10 за месяц (Фильмы)