.
Авторизация | Регистрация
Хочешь лучшие торренты? Добавь свой email!
Добавить

Торрент скачать бесплатно

» » Слушание / Подтверждение / Confirmation (2016) BDRemux [H.264 / 1080p] торрент скачать бесплатно




    Слушание / Подтверждение / Confirmation (2016) BDRemux [H.264 / 1080p] торрент скачать бесплатно

    Опубликовал: Админ | Дата: 31-07-2016, 04:03 | Просмотров: 92

    Производство: США
    Жанр: Драма, история
    Режиссер: Рик Фамуйива

    Актеры
    Керри Вашингтон, Зои Листер Джонс, Эрика Кристенсен, Грэйс Гаммер, Элисон Райт, Эрик Стоунстрит, Джеффри Райт, Грег Киннер, Дженнифер Хадсон, Уенделл Пирс

    Описание
    Политический скандал 1991 года, когда на слушании по назначению Кларенса Томаса в Верховный суд США, бывшая коллега Анита Хилл обвинила судью в сексуальном домогательстве.

    Дата мировой премьеры: 16 апреля 2016
    Дата российской премьеры: 17 апреля 2016
    Продолжительность: 01: 49: 42
    Качество видео: BDRemux
    Перевод: Профессиональный (многоголосый, закадровый) (Amedia)
    Язык субтитров: Английский
    Вид субтитров: Вшитые (отключаемые)
    Видео: AVC/H.264, 1920x1080p, (16: 9), 30.8 Mbps, 23, 976 fps
    Аудио: AC3, 6 ch, 448 kbps - Русский
    Аудио: DTS-HD MA, 6 ch, 3201 kbps - Английский

    General
    Unique ID : 196942163756264296604296296412149466683 (0x9429AE593B3162F88E50F0CA9B54463B)
    Complete name : G: VideoConfirmation.2016.MVO.BDREMUX.1080p.ExKinoRay.mkv
    Format : Matroska
    Format version : Version 4/Version 2
    File size : 26.4 GiB
    Duration : 1h 49mn
    Overall bit rate mode : Variable
    Overall bit rate : 34.5 Mbps
    Movie name : Confirmation.2016.MVO.BDREMUX.1080p.ExKinoRay
    Encoded date : UTC 2016-07-26 20: 17: 06
    Writing application : mkvmerge v8.3.0 (\'Over the Horizon\') 64bit
    Writing library : libebml v1.3.1 + libmatroska v1.4.2
    Video
    ID : 1
    Format : AVC
    Format/Info : Advanced Video Codec
    Format profile : High@L4.1
    Format settings, CABAC : Yes
    Format settings, ReFrames : 4 frames
    Codec ID : V_MPEG4/ISO/AVC
    Duration : 1h 49mn
    Bit rate mode : Variable
    Bit rate : 30.8 Mbps
    Maximum bit rate : 38.0 Mbps
    Width : 1 920 pixels
    Height : 1 080 pixels
    Display aspect ratio : 16: 9
    Frame rate mode : Constant
    Frame rate : 23.976 (24000/1001) fps
    Color space : YUV
    Chroma subsampling : 4: 2: 0
    Bit depth : 8 bits
    Scan type : Progressive
    Bits/(Pixel*Frame) : 0.620
    Stream size : 23.6 GiB (89%)
    Language : English
    Default : Yes
    Forced : No
    Audio #1
    ID : 2
    Format : AC-3
    Format/Info : Audio Coding 3
    Mode extension : CM (complete main)
    Format settings, Endianness : Big
    Codec ID : A_AC3
    Duration : 1h 49mn
    Bit rate mode : Constant
    Bit rate : 448 Kbps
    Channel(s) : 6 channels
    Channel positions : Front: L C R, Side: L R, LFE
    Sampling rate : 48.0 KHz
    Frame rate : 31.250 fps (1536 spf)
    Compression mode : Lossy
    Stream size : 352 MiB (1%)
    Title : MVO Amedia
    Language : Russian
    Default : Yes
    Forced : No
    Audio #2
    ID : 3
    Format : DTS
    Format/Info : Digital Theater Systems
    Format profile : MA/Core
    Mode : 16
    Format settings, Endianness : Big
    Codec ID : A_DTS
    Duration : 1h 49mn
    Bit rate mode : Variable/Constant
    Bit rate : 3 201 Kbps/1 509 Kbps
    Channel(s) : 6 channels
    Channel positions : Front: L C R, Side: L R, LFE
    Sampling rate : 48.0 KHz
    Frame rate : 93.750 fps (512 spf)
    Bit depth : 24 bits
    Compression mode : Lossless/Lossy
    Stream size : 2.45 GiB (9%)
    Title : Original
    Language : English
    Default : No
    Forced : No
    Text
    ID : 4
    Format : UTF-8
    Codec ID : S_TEXT/UTF8
    Codec ID/Info : UTF-8 Plain Text
    Duration : 1h 49mn
    Bit rate : 94 bps
    Count of elements : 1764
    Stream size : 76.0 KiB (0%)
    Title : SDH
    Language : English
    Default : No
    Forced : No
    Menu
    00: 00: 00.000 : en: 00: 00: 00.000
    00: 10: 41.266 : en: 00: 10: 41.266
    00: 15: 32.265 : en: 00: 15: 32.265
    00: 23: 45.340 : en: 00: 23: 45.340
    00: 30: 56.563 : en: 00: 30: 56.563
    00: 36: 01.367 : en: 00: 36: 01.367
    00: 45: 36.317 : en: 00: 45: 36.317
    00: 48: 48.509 : en: 00: 48: 48.509
    00: 54: 51.455 : en: 00: 54: 51.455
    01: 01: 46.244 : en: 01: 01: 46.244
    01: 08: 32.608 : en: 01: 08: 32.608
    01: 16: 11.609 : en: 01: 16: 11.609
    01: 22: 20.143 : en: 01: 22: 20.143
    01: 29: 52.011 : en: 01: 29: 52.011
    01: 36: 46.092 : en: 01: 36: 46.092
    01: 42: 08.497 : en: 01: 42: 08.497


    Скриншоты для ознакомления




    Онлайн видео Слушание



    Слушание/Подтверждение/Confirmation (2016) BDRemux [H.264/1080p]
    загрузка...
    Рейтинг →
     (голосов: 1, оценка 3/5, голосовать можно 1 раз )

    Другие торренты по теме:

  • Слушание / Подтверждение / Confirmation (2016) BDRip [H.264 / 1080p]
  • Слушание / Подтверждение / Confirmation (2016) BDRip [H.264 / 720p]
  • Слушание / Подтверждение / Confirmation (2016) BDRip [H.264 / 1080p]


    • Комментарии (0):

      Информация

      Информация

        Посетители, находящиеся в группе Гости, не могут оставлять комментарии в данной новости.

        ↓ Меню




        ↓ Опрос

        Вы добавили сайт в закладки?
        Да
        Нет


        Top 10 за месяц (Фильмы)