.
Авторизация | Регистрация
Хочешь лучшие торренты? Добавь свой email!
Добавить

Торрент скачать бесплатно

» » Зелёная комната / Green Room (2015) BDRip [H.264 / 720p] [AVO] торрент скачать бесплатно




    Зелёная комната / Green Room (2015) BDRip [H.264 / 720p] [AVO] торрент скачать бесплатно

    Опубликовал: Админ | Дата: 31-07-2016, 04:03 | Просмотров: 257

    Производство: США
    Жанр: Триллер, Криминал
    Режиссер: Джереми Солнье

    Актеры
    Антон Ельчин, Джо Коул, Алиа Шокат, Каллум Тернер, Дэвид В. Прикольно все это наверно придумал Чак Норрис потратив достаточно времени. Томпсон, Марк Веббер, Мэйкон Блэр, Эрик Эдельштейн, Майкл Дрэйпер, Энди Коуплэнд

    Описание

    Панк-группа из четырёх человек колесит по Америке на небольшом фургончике. Дают концерты, где придётся, и считают копейки. И тут выпадает возможность подзаработать на концерте в общине скинхедов чуть больше, чем обычно. Конечно же они соглашаются. Всё, вроде бы проходит неплохо, но после концерта они становятся свидетелями убийства в гримёрке с зелёными стенами.

    Рейтинг MPAA: R (лицам до 17 лет обязательно присутствие взрослого)
    Дата мировой премьеры: 17 мая 2015
    Продолжительность: 01: 35: 01
    Качество видео: BDRip 720p
    Перевод: Авторский (одноголосый, закадровый) (Д. Есарев, А. Матвеев)
    Вид субтитров: Вшитые, отключаемые
    Язык субтитров: Русский, Английский
    Видео: AVC/H.264, 1280x534, (2.40: 1), 7 111 Kbps, 23.976 fps
    Аудио: DTS, 6 ch, 1509 kbps - Русский, Д. Есарев
    Аудио: DTS, 6 ch, 1509 kbps - Русский, А. Матвеев (нецензурный)
    Аудио: DTS, 6 ch, 1509 kbps - Русский, Д. Есарев (нецензурный)
    Аудио: DTS, 6 ch, 1509 kbps - Английский
    Аудио: AAC, 2 ch, 67 kbps - Английский, Commentary with Jeremy Saulnier
    Код:

    Format : Matroska
    Format version : Version 4/Version 2
    File size : 8.82 GiB
    Duration : 1h 35mn
    Overall bit rate : 13.3 Mbps
    Encoded date : UTC 2016-07-17 20:28:50
    Writing application : mkvmerge v8.3.0 (\'Over the Horizon\') 32bit
    Writing library : libebml v1.3.1 + libmatroska v1.4.2
    Cover : Yes
    Attachments : cover.jpg
    Video
    ID : 1
    Format : AVC
    Format/Info : Advanced Video Codec
    Format profile :High@L4.1
    Format settings, CABAC : Yes
    Format settings, ReFrames : 12 frames
    Codec ID : V_MPEG4/ISO/AVC
    Duration : 1h 35mn
    Bit rate : 7 111 Kbps
    Width : 1 280 pixels
    Height : 534 pixels
    Display aspect ratio : 2.40:1
    Frame rate mode : Constant
    Frame rate : 23.976 (24000/1001) fps
    Color space : YUV
    Chroma subsampling : 4:2:0
    Bit depth : 8 bits
    Scan type : Progressive
    Bits/(Pixel*Frame) : 0.434
    Stream size : 4.72 GiB (54%)
    Writing library : x264 core 148 r2692.11 7386685 VietHD_Custom_64
    Encoding settings : cabac=1/ref=12/deblock=1:-3:-3/analyse=0x3:0x133/me=umh/subme=10/psy=1/fade_compensate=0.00/psy_rd=1.10:0.00/mixed_ref=1/me_range=24/chroma_me=1/trellis=2/8x8dct=1/cqm=0/deadzone=21, 11/fast_pskip=0/chroma_qp_offset=-2/threads=12/lookahead_threads=2/sliced_threads=0/nr=0/decimate=0/interlaced=0/bluray_compat=0/constrained_intra=0/fgo=0/bframes=8/b_pyramid=2/b_adapt=2/b_bias=0/direct=3/weightb=1/open_gop=0/weightp=2/keyint=250/keyint_min=23/scenecut=40/intra_refresh=0/rc_lookahead=60/rc=crf/mbtree=0/crf=17.0000/qcomp=0.65/qpmin=0:0:0/qpmax=69:69:69/qpstep=4/vbv_maxrate=62500/vbv_bufsize=78125/crf_max=0.0/nal_hrd=none/filler=0/ip_ratio=1.30/pb_ratio=1.20/aq=3:0.67/aq-sensitivity=10.00/aq-factor=1.00:1.00:1.00/aq2=0/aq3=0/zones=0, 216, crf=13
    Language : English
    Default : Yes
    Forced : No
    Color range : Limited
    Matrix coefficients : BT.709
    Audio #1
    ID : 2
    Format : DTS
    Format/Info : Digital Theater Systems
    Mode : 16
    Format settings, Endianness : Big
    Codec ID : A_DTS
    Duration : 1h 35mn
    Bit rate mode : Constant
    Bit rate : 1 509 Kbps
    Channel(s) : 6 channels
    Channel positions : Front: L C R, Side: L R, LFE
    Sampling rate : 48.0 KHz
    Frame rate : 93.750 fps (512 spf)
    Bit depth : 24 bits
    Compression mode : Lossy
    Stream size : 1.00 GiB (11%)
    Title : Одноголосый закадровый, Д. Есарев
    Language : Russian
    Default : Yes
    Forced : No
    Audio #2
    ID : 3
    Format : DTS
    Format/Info : Digital Theater Systems
    Mode : 16
    Format settings, Endianness : Big
    Codec ID : A_DTS
    Duration : 1h 35mn
    Bit rate mode : Constant
    Bit rate : 1 509 Kbps
    Channel(s) : 6 channels
    Channel positions : Front: L C R, Side: L R, LFE
    Sampling rate : 48.0 KHz
    Frame rate : 93.750 fps (512 spf)
    Bit depth : 24 bits
    Compression mode : Lossy
    Stream size : 1.00 GiB (11%)
    Title : Одноголосый закадровый, А. Матвеев (нецензурный)
    Language : Russian
    Default : No
    Forced : No
    Audio #3
    ID : 4
    Format : DTS
    Format/Info : Digital Theater Systems
    Mode : 16
    Format settings, Endianness : Big
    Codec ID : A_DTS
    Duration : 1h 35mn
    Bit rate mode : Constant
    Bit rate : 1 509 Kbps
    Channel(s) : 6 channels
    Channel positions : Front: L C R, Side: L R, LFE
    Sampling rate : 48.0 KHz
    Frame rate : 93.750 fps (512 spf)
    Bit depth : 24 bits
    Compression mode : Lossy
    Stream size : 1.00 GiB (11%)
    Title : Одноголосый закадровый, Д. Есарев (нецензурный)
    Language : Russian
    Default : No
    Forced : No
    Audio #4
    ID : 5
    Format : DTS
    Format/Info : Digital Theater Systems
    Mode : 16
    Format settings, Endianness : Big
    Codec ID : A_DTS
    Duration : 1h 35mn
    Bit rate mode : Constant
    Bit rate : 1 509 Kbps
    Channel(s) : 6 channels
    Channel positions : Front: L C R, Side: L R, LFE
    Sampling rate : 48.0 KHz
    Frame rate : 93.750 fps (512 spf)
    Bit depth : 24 bits
    Compression mode : Lossy
    Stream size : 1.00 GiB (11%)
    Title : English
    Language : English
    Default : No
    Forced : No
    Audio #5
    ID : 6
    Format : AAC
    Format/Info : Advanced Audio Codec
    Format profile : LC
    Codec ID : A_AAC
    Duration : 1h 35mn
    Bit rate : 127 Kbps
    Channel(s) : 2 channels
    Channel positions : Front: L R
    Sampling rate : 48.0 KHz
    Frame rate : 46.875 fps (1024 spf)
    Compression mode : Lossy
    Delay relative to video : 9ms
    Stream size : 86.6 MiB (1%)
    Title : Commentary with Jeremy Saulnier
    Language : English
    Default : No
    Forced : No
    Text #1
    ID : 7
    Format : UTF-8
    Codec ID : S_TEXT/UTF8
    Codec ID/Info : UTF-8 Plain Text
    Duration : 1h 24mn
    Bit rate : 5 bps
    Count of elements : 46
    Stream size : 3.45 KiB (0%)
    Title : Матвеев, песни
    Language : Russian
    Default : No
    Forced : No
    Text #2
    ID : 8
    Format : UTF-8
    Codec ID : S_TEXT/UTF8
    Codec ID/Info : UTF-8 Plain Text
    Duration : 1h 30mn
    Bit rate : 79 bps
    Count of elements : 824
    Stream size : 52.7 KiB (0%)
    Title : Матвеев
    Language : Russian
    Default : No
    Forced : No
    Text #3
    ID : 9
    Format : UTF-8
    Codec ID : S_TEXT/UTF8
    Codec ID/Info : UTF-8 Plain Text
    Duration : 1h 27mn
    Bit rate : 80 bps
    Count of elements : 1123
    Stream size : 51.7 KiB (0%)
    Title : Stevvie
    Language : Russian
    Default : No
    Forced : No
    Text #4
    ID : 10
    Format : UTF-8
    Codec ID : S_TEXT/UTF8
    Codec ID/Info : UTF-8 Plain Text
    Duration : 1h 27mn
    Bit rate : 85 bps
    Count of elements : 1211
    Stream size : 54.9 KiB (0%)
    Title : Stevvie, SDH
    Language : Russian
    Default : No
    Forced : No
    Text #5
    ID : 11
    Format : UTF-8
    Codec ID : S_TEXT/UTF8
    Codec ID/Info : UTF-8 Plain Text
    Duration : 1h 31mn
    Bit rate : 50 bps
    Count of elements : 1306
    Stream size : 33.6 KiB (0%)
    Language : English
    Default : No
    Forced : No
    Text #6
    ID : 12
    Format : UTF-8
    Codec ID : S_TEXT/UTF8
    Codec ID/Info : UTF-8 Plain Text
    Duration : 1h 33mn
    Bit rate : 56 bps
    Count of elements : 1432
    Stream size : 38.6 KiB (0%)
    Language : English
    Default : No
    Forced : No
    Menu
    00:00:00.000 : en:00:00:00.000
    00:07:44.213 : en:00:07:44.213
    00:13:51.247 : en:00:13:51.247
    00:18:01.163 : en:00:18:01.163
    00:24:30.051 : en:00:24:30.051
    00:32:01.961 : en:00:32:01.961
    00:37:28.162 : en:00:37:28.162
    00:45:49.788 : en:00:45:49.788
    00:49:17.162 : en:00:49:17.162
    00:55:19.524 : en:00:55:19.524
    01:00:19.866 : en:01:00:19.866
    01:03:34.894 : en:01:03:34.894
    01:10:05.201 : en:01:10:05.201
    01:13:34.701 : en:01:13:34.701
    01:17:52.209 : en:01:17:52.209
    01:25:07.560 : en:01:25:07.560


    Скриншоты для ознакомления




    Онлайн видео Зелёная комната



    Зелёная комната/Green Room (2015) BDRip [H.264/720p] [AVO]
    загрузка...
    Рейтинг →
     (голосов: 1, оценка 3/5, голосовать можно 1 раз )

    Другие торренты по теме:

  • Зелёная комната / Green Room (2015) HDRip [VO]
  • Зелёная комната / Green Room (2015) BDRip [H.264 / 1080p]
  • Зелёная комната / Green Room (2015) BDRip [H.264] [AVO]
  • Зелёная комната / Green Room (2015) BDRip [H.264 / 1080p] [AVO]
  • Зелёная комната / Green Room (2015) BDRemux [H.264 / 1080p] [AVO]


    • Комментарии (0):

      Информация

      Информация

        Посетители, находящиеся в группе Гости, не могут оставлять комментарии в данной новости.

        ↓ Меню




        ↓ Опрос

        Вы добавили сайт в закладки?
        Да
        Нет


        Top 10 за месяц (Фильмы)