.
Авторизация | Регистрация
Хочешь лучшие торренты? Добавь свой email!
Добавить

Торрент скачать бесплатно

» » Белоснежка и Охотник 2 / The Huntsman (2016) BDRemux [H.264 / 1080p] [Театральная версия] торрент скачать бесплатно




    Белоснежка и Охотник 2 / The Huntsman (2016) BDRemux [H.264 / 1080p] [Театральная версия] торрент скачать бесплатно

    Опубликовал: Админ | Дата: 31-07-2016, 04:03 | Просмотров: 10

    Производство: США/Roth Films, Universal Pictures
    Жанр: фэнтези, боевик, драма, приключения
    Режиссер: Седрик Николя-Троян
    Продюсер: Джо Рот, Сара Брэдшоу, Палак Патель

    Актеры
    Крис Хемсворт, Шарлиз Терон, Джессика Честейн, Эмили Блант, Ник Фрост, Роб Брайдон, Шеридан Смит, Александра Роуч, Сопе Дирису, Сэм Хэзелдайн, Сэм Клафлин, Софи Куксон, Конрад Кхан, Ниам Уолтер, Нана Аджйеман-Бедьяко, Амелия Крауч, Фред Татаскьор, Ралф Айнесон, Линн Уилмот, Колин Морган

    Описание

    Когда любовь уходит, сердце прекрасной девы обращается в лед. И даже сотни королевств не смогут сдержать поступь ее несметного воинства. Лишь Охотник не ведает страха. Сквозь проклятый лес он идет навстречу своей судьбе.

    Возраст: 16+ (зрителям, достигшим 16 лет)
    Рейтинг MPAA: PG-13 (детям до 13 лет просмотр нежелателен)
    Дата мировой премьеры: 29 марта 2016
    Дата российской премьеры: 14 апреля 2016, UPI 3D

    Продолжительность: 01: 53: 57
    Качество: BDRemux
    Перевод: Дублированный (iTunes Russia), Профессиональный (многоголосый, закадровый) (FocusStudio)
    Вид субтитров: Вшитые отключаемые
    Язык субтитров: Русский
    Видео: AVC/H.264, 1920x1080p, (16: 9), 25.3 Mbps, 23, 976 fps
    Аудио: AC3, 6 ch, 384 kbps - Русский, Дубляж
    Аудио: AC3, 2 ch, 192 kbps - Русский, FocusStudio
    Аудио: DTS: X MA, 8 ch, 3840 kbps - Английский
    Код:

    General
    Unique ID : 218647248676068635449479198447442427296 (0xA47DEDA83C289F888EE3042225FD7DA0)
    Complete name : G:VideoThe.Huntsman.Winter\'s.War.2016.D.MVO.BDREMUX.1080p.ExKinoRay.mkv
    Format : Matroska
    Format version : Version 4/Version 2
    File size : 23.7 GiB
    Duration : 1h 53mn
    Overall bit rate mode : Variable
    Overall bit rate : 29.8 Mbps
    Movie name : The.Huntsman.Winter\'s.War.2016.D.MVO.BDREMUX.1080p.ExKinoRay
    Encoded date : UTC 2016-07-28 20:22:07
    Writing application : mkvmerge v8.3.0 (\'Over the Horizon\') 64bit
    Writing library : libebml v1.3.1 + libmatroska v1.4.2
    Video
    ID : 1
    Format : AVC
    Format/Info : Advanced Video Codec
    Format profile :High@L4.1
    Format settings, CABAC : Yes
    Format settings, ReFrames : 4 frames
    Format settings, GOP : M=3, N=12
    Codec ID : V_MPEG4/ISO/AVC
    Duration : 1h 53mn
    Bit rate mode : Variable
    Bit rate : 25.3 Mbps
    Maximum bit rate : 30.0 Mbps
    Width : 1 920 pixels
    Height : 1 080 pixels
    Display aspect ratio : 16:9
    Frame rate mode : Constant
    Frame rate : 23.976 (24000/1001) fps
    Color space : YUV
    Chroma subsampling : 4:2:0
    Bit depth : 8 bits
    Scan type : Progressive
    Bits/(Pixel*Frame) : 0.509
    Stream size : 20.1 GiB (85%)
    Language : English
    Default : Yes
    Forced : No
    Audio #1
    ID : 2
    Format : AC-3
    Format/Info : Audio Coding 3
    Mode extension : CM (complete main)
    Format settings, Endianness : Big
    Codec ID : A_AC3
    Duration : 1h 53mn
    Bit rate mode : Constant
    Bit rate : 384 Kbps
    Channel(s) : 6 channels
    Channel positions : Front: L C R, Side: L R, LFE
    Sampling rate : 48.0 KHz
    Frame rate : 31.250 fps (1536 spf)
    Compression mode : Lossy
    Stream size : 313 MiB (1%)
    Title : DUB [iTunes]
    Language : Russian
    Default : Yes
    Forced : No
    Audio #2
    ID : 3
    Format : AC-3
    Format/Info : Audio Coding 3
    Mode extension : CM (complete main)
    Format settings, Endianness : Big
    Codec ID : A_AC3
    Duration : 1h 53mn
    Bit rate mode : Constant
    Bit rate : 192 Kbps
    Channel(s) : 2 channels
    Channel positions : Front: L R
    Sampling rate : 48.0 KHz
    Frame rate : 31.250 fps (1536 spf)
    Compression mode : Lossy
    Delay relative to video : 24ms
    Stream size : 156 MiB (1%)
    Title : MVO [FocusStudio]
    Language : Russian
    Default : No
    Forced : No
    Audio #3
    ID : 4
    Format : DTS
    Format/Info : Digital Theater Systems
    Format profile : X/MA/Core
    Mode : 16
    Format settings, Endianness : Big
    Codec ID : A_DTS
    Duration : 1h 53mn
    Bit rate mode : Variable/Variable/Constant
    Bit rate : 3 840 Kbps/3 840 Kbps/1 509 Kbps
    Channel(s) : Object Based/8 channels/6 channels
    Channel positions : Object Based/Front: L C R, Side: L R, Back: L R, LFE/Front: L C R, Side: L R, LFE
    Sampling rate : /48.0 KHz/48.0 KHz
    Frame rate : 93.750 fps (512 spf)
    Bit depth : /24 bits/24 bits
    Compression mode : /Lossless/Lossy
    Stream size : 3.08 GiB (13%)
    Title : Original
    Language : English
    Default : No
    Forced : No
    Text
    ID : 5
    Format : UTF-8
    Codec ID : S_TEXT/UTF8
    Codec ID/Info : UTF-8 Plain Text
    Duration : 1h 43mn
    Bit rate : 62 bps
    Count of elements : 978
    Stream size : 47.6 KiB (0%)
    Title : Full
    Language : Russian
    Default : No
    Forced : No
    Menu
    00:00:00.000 : en:Chapter 01
    00:06:28.000 : en:Chapter 02
    00:09:28.000 : en:Chapter 03
    00:15:05.000 : en:Chapter 04
    00:21:35.000 : en:Chapter 05
    00:26:54.000 : en:Chapter 06
    00:32:36.000 : en:Chapter 07
    00:36:53.000 : en:Chapter 08
    00:42:16.000 : en:Chapter 09
    00:47:29.000 : en:Chapter 10
    00:54:39.000 : en:Chapter 11
    00:59:28.000 : en:Chapter 12
    01:06:20.000 : en:Chapter 13
    01:10:22.000 : en:Chapter 14
    01:17:47.000 : en:Chapter 15
    01:23:19.000 : en:Chapter 16
    01:28:08.000 : en:Chapter 17
    01:33:42.000 : en:Chapter 18
    01:42:22.000 : en:Chapter 19
    01:44:28.000 : en:Chapter 20


    Скриншоты для ознакомления




    Онлайн видео Белоснежка и Охотник 2



    Белоснежка и Охотник 2/The Huntsman (2016) BDRemux [H.264/1080p] [Театральная версия]
    загрузка...
    Рейтинг →
     (голосов: 1, оценка 3/5, голосовать можно 1 раз )

    Другие торренты по теме:

  • Белоснежка и охотник / Snow White and the Huntsman (2012) BDRip [1080p] [Extended Cut] ATV
  • Белоснежка и охотник / Snow White and the Huntsman (2012) BDRip [576p] [Extended Cut] iPad
  • Белоснежка и охотник / Snow White and the Huntsman (2012) BDRip [H.264 / 720p] [hand made 48fps] [Extended Cut] скачать через торрент бесплатно
  • Белоснежка и Охотник 2 / The Huntsman (2016) WEBRip [QuickTime / 1080p] [Тизер] скачать через торрент бесплатно
  • Белоснежка и Охотник 2 / The Huntsman (2016) DCPRip [4K] [MPEG-2 / 2160p] [Трейлер] скачать через торрент бесплатно
  • Белоснежка и Охотник 2 / The Huntsman (2016) DCPRip [2K] [Hi10P, Hi444PP] [Трейлер А] скачать через торрент бесплатно
  • Белоснежка и Охотник 2 / The Huntsman (2016) CamRip
  • Белоснежка и Охотник 2 / The Huntsman: Winters War (2016) TC [Звук с CamRip]


    • Комментарии (0):

      Информация

      Информация

        Посетители, находящиеся в группе Гости, не могут оставлять комментарии в данной новости.

        ↓ Меню




        ↓ Опрос

        Вы добавили сайт в закладки?
        Да
        Нет


        Top 10 за месяц (Фильмы)