.
Авторизация | Регистрация
Хочешь лучшие торренты? Добавь свой email!
Добавить

Торрент скачать бесплатно

» » Час пик / Rush Hour (2016) WEB-DL [H.264 / 720p-LQ] (сезон 1, серии 1-9 из 13) IDEAFILM (обновляемая) торрент скачать бесплатно




    Час пик / Rush Hour (2016) WEB-DL [H.264 / 720p-LQ] (сезон 1, серии 1-9 из 13) IDEAFILM (обновляемая) торрент скачать бесплатно

    Опубликовал: Админ | Дата: 28-07-2016, 04:00 | Просмотров: 23

    Производство: США
    Жанр: боевик, комедия, криминал
    Режиссер: Джон Тёртелтауб

    Актеры
    Джон ФуДжастин ХайрсМорис Комт, Скотт Ринкер, Бертон Перез, Джон М. Адриан, Crispin Alapag, Бетси Бейкер, Элисон Болл, Карисса Блейдс и др.

    Описание

    Сериал-ремейк одноименного фильма о приключениях болтливого копа и его напарника. Самодовольный офицер Картер считает, что командная работа не для него. Однако, в паре с ним вынужден работать Ли — офицер полиции Гонконга, который был направлен в Лос-Анджелес.

    Дата мировой премьеры: 31 марта 2016
    Продолжительность: ~ 00: 43: 00 серия
    Качество видео: WEB-DL
    Перевод: Многоголосый закадровый, профессиональный -IDEAFILM
    Реклама: присутствуют видео, аудио, текстовые вставки рекламы
    Видео: AVC/H.264, 1280x720 (16: 9), ~3933 kbps
    Аудио#1 Rus: AC3, 48, 0 kHz, 6 ch, 384 kb/s — многоголосый закадровый
    Аудио#2 Eng: AC3, 48, 0 kHz, 6 ch, 384 kb/s — оригинал
    Код:

    Rush.Hour.2016.S01E01.WEB-DL.720p-IDEAFILM.mkv
    Format : Matroska
    Format version : Version 4/Version 2
    File size : 1.43 GiB
    Duration : 43 min
    Overall bit rate mode : Variable
    Overall bit rate : 4 699 kb/s
    Encoded date : UTC 2016-04-01 22:58:50
    Writing application : mkvmerge v8.6.1 (\'Flying\') 64bit
    Writing library : libebml v1.3.3 + libmatroska v1.4.4
    Video
    ID : 1
    Format : AVC
    Format/Info : Advanced Video Codec
    Format profile :High@L3.2
    Format settings, CABAC : Yes
    Format settings, ReFrames : 3 frames
    Codec ID : V_MPEG4/ISO/AVC
    Duration : 43 min
    Bit rate mode : Variable
    Bit rate : 3 933 kb/s
    Maximum bit rate : 4 000 kb/s
    Width : 1 280 pixels
    Height : 720 pixels
    Display aspect ratio : 16:9
    Frame rate mode : Constant
    Frame rate : 23.976 (24000/1001) FPS
    Standard : NTSC
    Color space : YUV
    Chroma subsampling : 4:2:0
    Bit depth : 8 bits
    Scan type : Progressive
    Bits/(Pixel*Frame) : 0.178
    Stream size : 1.20 GiB (84%)
    Language : English
    Default : Yes
    Forced : No
    Color range : Limited
    Color primaries : BT.709
    Transfer characteristics : BT.709
    Matrix coefficients : BT.709
    Audio #1
    ID : 2
    Format : AC-3
    Format/Info : Audio Coding 3
    Mode extension : CM (complete main)
    Format settings, Endianness : Big
    Codec ID : A_AC3
    Duration : 43 min
    Bit rate mode : Constant
    Bit rate : 384 kb/s
    Channel(s) : 6 channels
    Channel positions : Front: L C R, Side: L R, LFE
    Sampling rate : 48.0 kHz
    Frame rate : 31.250 FPS (1536 spf)
    Compression mode : Lossy
    Stream size : 120 MiB (8%)
    Title : IDEAFILM
    Language : Russian
    Default : Yes
    Forced : No
    Audio #2
    ID : 3
    Format : AC-3
    Format/Info : Audio Coding 3
    Mode extension : CM (complete main)
    Format settings, Endianness : Big
    Codec ID : A_AC3
    Duration : 43 min
    Bit rate mode : Constant
    Bit rate : 384 kb/s
    Channel(s) : 6 channels
    Channel positions : Front: L C R, Side: L R, LFE
    Sampling rate : 48.0 kHz
    Frame rate : 31.250 FPS (1536 spf)
    Compression mode : Lossy
    Stream size : 119 MiB (8%)
    Language : English
    Default : No
    Forced : No


    Скриншоты для ознакомления




    Онлайн видео Час пик



    Час пик/Rush Hour (2016) WEB-DL [H.264/720p-LQ] (сезон 1, серии 1-9 из 13) IDEAFILM (обновляемая)
    загрузка...
    Рейтинг →
     (голосов: 1, оценка 3/5, голосовать можно 1 раз )

    Другие торренты по теме:

  • Christopher Lawrence - Rush Hour 001 - 089 (2008-2015) (обновляемая) [MP3|192 кб / с]<Underground Trance, Tech Trance, Psy-Trance, Progressive Trance, Trance, Goa> скачать через торрент бесплатно
  • Час Пик / Rush Hour (1998-2007) BDRip [H.264 / 1080p] [Трилогия] скачать через торрент бесплатно
  • Час пик 2 / Rush Hour 2 (2001) BDRip [H.264 / 1080p-LQ] скачать через торрент бесплатно
  • Час пик / Rush Hour (1998) BDRip [H.264 / 1080p-LQ] скачать через торрент бесплатно
  • Час пик 2 / Rush Hour 2 (2001) BDRip [H.264 / 1080p]
  • Час пик / Rush Hour (2016) HDTVRip (сезон 1, серии 1 из 10) BaibaKo (обновляемая)
  • VA - Cub Session Rush Hour Vol.10 (2016) [MP3|320 кб / с] <House>
  • Anarchy: Rush Hour (2010) [PS3] [USA] 3.55 [Cobra ODE / E3 ODE PRO ISO] [PSN] [En]


    • Комментарии (0):

      Информация

      Информация

        Посетители, находящиеся в группе Гости, не могут оставлять комментарии в данной новости.

        ↓ Меню




        ↓ Опрос

        Вы добавили сайт в закладки?
        Да
        Нет


        Top 10 за месяц (Фильмы)