.
Авторизация | Регистрация
Хочешь лучшие торренты? Добавь свой email!
Добавить

Торрент скачать бесплатно

» » Нулевой взвод / Сектор Зеро / Section Zero (2016) BDRip [H.264 / 720p-LQ] (сезон 1, серии 1-8 из 8) Первый канал торрент скачать бесплатно




    Нулевой взвод / Сектор Зеро / Section Zero (2016) BDRip [H.264 / 720p-LQ] (сезон 1, серии 1-8 из 8) Первый канал торрент скачать бесплатно

    Опубликовал: Админ | Дата: 27-07-2016, 04:01 | Просмотров: 118

    Производство: Франция
    Жанр: фантастика, триллер, драма, приключения
    Режиссер: Оливье Маршаль, Уильям Лоуренс

    Актеры
    Чеки Карио, Ола Рапас, Катрин Маршал, Паскаль Грегори, Франсис Рено, Константин Бальзан и др.

    Описание

    Гигантские транснациональные корпорации захватили власть на планете и сражаются за последние оставшиеся на Земле водные запасы. Среди таких корпораций, насаждающих в подконтрольных странах тоталитарный режим, лидирует стремительно растущая корпорация Прометей. Одна из целей корпорации — замена государственной полиции на частную армию Чёрный эскадрон, чей глава — Монро в свою очередь мечтает заменить солдат андроидами. О таком странном сюжете не догадывалась даже Волочкова. Монро противостоит полицейский-идеалист Сайрус, чья цель — спасти мир, каким он его знал, от полного исчезновения. Ради этой цели Сайрус формирует Секцию Зеро — группу, которая пойдёт на всё, использует любые методы, в том числе незаконные и жестокие, ради достижения великой цели.

    Дата мировой премьеры: 4 апреля 2016/size
    Продолжительность: ~00: 45: 00 серия
    Качество видео: BDRip
    Перевод: Многоголосый закадровый, профессиональный -Первый канал
    Вид субтитров: вшитые неотключаемые
    Язык субтитров: французский
    Реклама: присутствуют аудио, видео, текстовые вставки рекламы.
    Видео: AVC/H.264, 1280х694, ~6040 kbps
    Аудио: AC3, 2 ch, 192 kbps, CBR
    Код:

    ulevoy.Vzvod.s01e01.2016.P.BDRip.720p.mkv
    Format : Matroska
    Format version : Version 4/Version 2
    File size : 2.05 GiB
    Duration : 47 min
    Overall bit rate mode : Constant
    Overall bit rate : 6 234 kb/s
    Encoded date : UTC 2016-07-24 17:57:31
    Writing application : mkvmerge v9.3.1 (\'Mask Machine\') 64bit
    Writing library : libebml v1.3.4 + libmatroska v1.4.5
    Video
    ID : 1
    Format : AVC
    Format/Info : Advanced Video Codec
    Format profile :High@L4.1
    Format settings, CABAC : Yes
    Format settings, ReFrames : 9 frames
    Codec ID : V_MPEG4/ISO/AVC
    Duration : 47 min
    Bit rate mode : Constant
    Bit rate : 6 040 kb/s
    Nominal bit rate : 6 500 kb/s/6 500 kb/s
    Width : 1 280 pixels
    Height : 694 pixels
    Display aspect ratio : 1.85:1
    Frame rate mode : Constant
    Frame rate : 25.000 FPS
    Standard : Component
    Color space : YUV
    Chroma subsampling : 4:2:0
    Bit depth : 8 bits
    Scan type : Progressive
    Bits/(Pixel*Frame) : 0.272
    Stream size : 1.98 GiB (97%)
    Writing library : x264 core 144
    Encoding settings : cabac=1/ref=9/deblock=1:0:0/analyse=0x3:0x113/me=hex/subme=7/psy=1/psy_rd=1.00:0.00/mixed_ref=1/me_range=16/chroma_me=1/trellis=1/8x8dct=1/cqm=1/deadzone=21, 11/fast_pskip=1/chroma_qp_offset=-2/threads=18/lookahead_threads=3/sliced_threads=0/slices=1/nr=0/decimate=1/interlaced=0/minigop=0/stitchable=1/constrained_intra=0/bframes=3/b_pyramid=0/b_adapt=1/b_bias=0/direct=1/weightb=1/open_gop=1/weightp=2/keyint=250/keyint_min=25/scenecut=40/intra_refresh=0/rc_lookahead=40/rc=cbr/mbtree=1/bitrate=6500/ratetol=1.0/qcomp=0.60/qpmin=3/qpmax=69/qpstep=4/vbv_maxrate=6500/vbv_bufsize=6500/nal_hrd=cbr/filler=1/ip_ratio=1.40/aq=1:1.00
    Language : English
    Default : Yes
    Forced : No
    Color range : Limited
    Color primaries : BT.709
    Transfer characteristics : BT.709
    Matrix coefficients : BT.709
    Audio
    ID : 2
    Format : AC-3
    Format/Info : Audio Coding 3
    Mode extension : CM (complete main)
    Format settings, Endianness : Big
    Codec ID : A_AC3
    Duration : 47 min
    Bit rate mode : Constant
    Bit rate : 192 kb/s
    Channel(s) : 2 channels
    Channel positions : Front: L R
    Sampling rate : 48.0 kHz
    Frame rate : 31.250 FPS (1536 spf)
    Compression mode : Lossy
    Stream size : 64.6 MiB (3%)
    Language : Russian
    Default : Yes
    Forced : No


    Скриншоты для ознакомления




    Онлайн видео Нулевой взвод



    Нулевой взвод/Сектор Зеро/Section Zero (2016) BDRip [H.264/720p-LQ] (сезон 1, серии 1-8 из 8) Первый канал
    загрузка...
    Рейтинг →
     (голосов: 1, оценка 3/5, голосовать можно 1 раз )

    Другие торренты по теме:

  • Нулевой взвод / Сектор Зеро / Section Zero (2016) WEB-DL [H.264 / 720p-LQ] (сезон 1, серии 1-2 из 8) SunshineStudio (обновляемая)
  • Нулевой взвод (Сектор Зеро) / Section Zero (2016) WEBRip (Сезон 1, серии 1-2 из 8) SunshineStudio (обновляемая)


    • Комментарии (0):

      Информация

      Информация

        Посетители, находящиеся в группе Гости, не могут оставлять комментарии в данной новости.

        ↓ Меню




        ↓ Опрос

        Вы добавили сайт в закладки?
        Да
        Нет


        Top 10 за месяц (Фильмы)