.
Авторизация | Регистрация
Хочешь лучшие торренты? Добавь свой email!
Добавить

Торрент скачать бесплатно

» » Вентворт / Уэнтуорт / Wentworth (2016) HDTVRip [H.264 / 720p-LQ] (сезон 4, серии 1-4 из 12) BaibaKo (обновляемая) торрент скачать бесплатно




    Вентворт / Уэнтуорт / Wentworth (2016) HDTVRip [H.264 / 720p-LQ] (сезон 4, серии 1-4 из 12) BaibaKo (обновляемая) торрент скачать бесплатно

    Опубликовал: Админ | Дата: 27-07-2016, 04:01 | Просмотров: 14

    Производство: Австралия
    Жанр: драма, криминал
    Режиссер: Рег Уотсон

    Актеры
    Николь Да Силва, Лианна Уолсмен, Даниэль Кормак, Крис МакКвейд, Кейт Эткинсон, Шарина Клэнтон, Селия Айрлэнд, Кэтрин МакКлементс, Робби Магасива, Аарон Джеффри и др.

    Описание

    Вентворт - драматический сериал с очень динамичным и захватывающим сюжетом о сотрудниках и заключенных женской тюрьмы строгого режима в Австралии. Здесь существуют свои правила выживания, несоблюдение которых может стоить жизни. Прикольно все это наверно придумал Железный человек потратив достаточно времени. Каждая серия — это история жизни одной из героинь. Мы лучше узнаем о её характере, об обстоятельствах жизни, которые привели в тюрьму. И оказывается, что разница между заключенными и служащими тюрьмы не такая уже большая, и те, и другие являются узниками, только каждый по-своему.
    Ремейк популярного австралийского серила Узник/Prisoner, транслировавшегося с 27 февраля 1979 года по 11 декабря 1986 года, за это время было снято 8 сезон любимого сериалаов и 692 (!) серии.

    Продолжительность: ~00: 48: 00 серия
    Качество видео: HDTVRip
    Перевод: Многоголосый закадровый, профессиональный -BaibaKo
    Реклама: присутствуют аудио, видео, текстовые вставки рекламы.
    Видео: AVC/H.264, 1280x720 (16: 9), ~2928 Kbps
    Аудио Rus: AC3, 48, 0 kHz, 2 ch, 384 Kbps - многоголосый закадровый
    Аудио Eng: AC3, 48, 0 kHz, 6 ch, 384 Kbps - оригинал
    Код:

    Wentworth.s04e01.HDTV720p.Rus.Eng.BaibaKo.tv.mkv
    Format : Matroska
    Format version : Version 4/Version 2
    File size : 1.23 GiB
    Duration : 47 min
    Overall bit rate : 3 698 kb/s
    Encoded date : UTC 2016-06-08 12:55:12
    Writing application : mkvmerge v8.5.2 (\'Crosses\') 64bit
    Writing library : libebml v1.3.3 + libmatroska v1.4.4
    Video
    ID : 1
    Format : AVC
    Format/Info : Advanced Video Codec
    Format profile :High@L3.1
    Format settings, CABAC : Yes
    Format settings, ReFrames : 4 frames
    Codec ID : V_MPEG4/ISO/AVC
    Duration : 47 min
    Bit rate : 2 928 kb/s
    Width : 1 280 pixels
    Height : 720 pixels
    Display aspect ratio : 16:9
    Frame rate mode : Constant
    Frame rate : 25.000 FPS
    Color space : YUV
    Chroma subsampling : 4:2:0
    Bit depth : 8 bits
    Scan type : Progressive
    Bits/(Pixel*Frame) : 0.127
    Stream size : 1 000 MiB (79%)
    Writing library : x264 core 148 r2692 64f4e24
    Encoding settings : cabac=1/ref=3/deblock=1:0:0/analyse=0x3:0x113/me=hex/subme=7/psy=1/psy_rd=1.00:0.00/mixed_ref=1/me_range=16/chroma_me=1/trellis=1/8x8dct=1/cqm=0/deadzone=21, 11/fast_pskip=1/chroma_qp_offset=-2/threads=12/lookahead_threads=2/sliced_threads=0/nr=0/decimate=1/interlaced=0/bluray_compat=0/constrained_intra=0/bframes=3/b_pyramid=2/b_adapt=1/b_bias=0/direct=1/weightb=1/open_gop=0/weightp=2/keyint=250/keyint_min=25/scenecut=40/intra_refresh=0/rc_lookahead=40/rc=crf/mbtree=1/crf=18.0/qcomp=0.60/qpmin=0/qpmax=69/qpstep=4/ip_ratio=1.40/aq=1:1.00
    Default : No
    Forced : No
    Audio #1
    ID : 2
    Format : AC-3
    Format/Info : Audio Coding 3
    Mode extension : CM (complete main)
    Format settings, Endianness : Big
    Codec ID : A_AC3
    Duration : 47 min
    Bit rate mode : Constant
    Bit rate : 384 kb/s
    Channel(s) : 2 channels
    Channel positions : Front: L R
    Sampling rate : 48.0 kHz
    Frame rate : 31.250 FPS (1536 spf)
    Compression mode : Lossy
    Stream size : 131 MiB (10%)
    Language : Russian
    Default : Yes
    Forced : No
    Audio #2
    ID : 3
    Format : AC-3
    Format/Info : Audio Coding 3
    Mode extension : CM (complete main)
    Format settings, Endianness : Big
    Codec ID : A_AC3
    Duration : 47 min
    Bit rate mode : Constant
    Bit rate : 384 kb/s
    Channel(s) : 6 channels
    Channel positions : Front: L C R, Side: L R, LFE
    Sampling rate : 48.0 kHz
    Frame rate : 31.250 FPS (1536 spf)
    Compression mode : Lossy
    Stream size : 131 MiB (10%)
    Language : English
    Default : No
    Forced : No


    Скриншоты для ознакомления




    Онлайн видео Вентворт



    Вентворт/Уэнтуорт/Wentworth (2016) HDTVRip [H.264/720p-LQ] (сезон 4, серии 1-4 из 12) BaibaKo (обновляемая)
    загрузка...
    Рейтинг →
     (голосов: 1, оценка 5/5, голосовать можно 1 раз )

    Другие торренты по теме:



      Комментарии (0):

      Информация

      Информация

        Посетители, находящиеся в группе Гости, не могут оставлять комментарии в данной новости.

        ↓ Меню




        ↓ Опрос

        Вы добавили сайт в закладки?
        Да
        Нет


        Top 10 за месяц (Фильмы)