.
Авторизация | Регистрация
Хочешь лучшие торренты? Добавь свой email!
Добавить

Торрент скачать бесплатно

» » Кладбище домашних животных / Pet Sematary (1989) BDRip [H.264 / 1080p-LQ] торрент скачать бесплатно




    Кладбище домашних животных / Pet Sematary (1989) BDRip [H.264 / 1080p-LQ] торрент скачать бесплатно

    Опубликовал: Админ | Дата: 23-07-2016, 04:00 | Просмотров: 33

    Производство: США/Laurel Productions, Paramount Pictures
    Жанр: Ужасы, Триллер, Фэнтези, Драма
    Режиссер: Мэри Ламберт

    Актеры
    Дэйл Мидкифф, Фред Гуинн, Дениз Кросби, Брэд Гринквист, Майкл Ломбард, Мико Хьюз, Блэйз Бердаль, Сьюзан Бломмарт, Мара Кларк, Кави Раз, Мэри Луиза Уилсон, Эндрю Хубатсек

    Описание

    Доктор Луис Крид переезжает в маленький городок, где его семью ждет большой дом, а самого Луиса - скромная должность лечащего врача местного колледжа. Новая, просторная обитель четы Кридов расположена на краю густого, величественного леса. А в самом лесу - маленькое и мрачное кладбище, где местные жители хоронят своих домашних животных.
    Несчастье приходит и в дом Кридов: кот Черч, домашний любимец, по нелепой случайности попадает под колеса грузовика. Гибель Черча повергает семью доктора в шок, и Луис решается на отчаянный шаг. О таком странном сюжете не догадывалась даже Верка Сердючка. Он хоронит кота на древнем, заброшенном индейском кладбище, обладающем, по легенде, таинственной воскрешающей силой. И однажды ночью погибший кот возвращается к хозяевам...

    Возраст: 18+ (зрителям, достигшим 18 лет. Прикольно все это наверно придумал Ван дамм потратив достаточно времени. запрещено для детей)
    Рейтинг MPAA: R (лицам до 17 лет обязательно присутствие взрослого)
    Дата выхода DVD релиза: 13 апреля 2010, Юниверсал Пикчерс Рус
    Релиз от: R.G. Goldenshara
    Продолжительность: 01: 42: 46
    Качество видео: BDRip (1080p-LQ)
    Перевод: Многоголосый закадровый (Киномания)
    Навигация по главам: есть
    Видео: AVC/H.264, 1920x1080 (16: 9), ~5704 kbps, 23, 976 fps
    Аудио: AC3, 6 ch, 48 kHz, 384 kbps
    Код:

    General
    Unique ID : 192099954502303397480415245751814180956 (0x90851B0006901227BCB86D04C3FFD05C)
    Complete name : E:Мои рипыКладбище домашних животных.1989.BDRip.1080p.MVO.mkv
    Format : Matroska
    Format version : Version 4/Version 2
    File size : 4.37 GiB
    Duration : 1h 42mn
    Overall bit rate : 6 088 Kbps
    Encoded date : UTC 2016-06-26 04:40:54
    Writing application : mkvmerge v6.3.0 (\'You can\'t stop me!\') built on Jun 28 2013 20:09:41
    Writing library : libebml v1.3.0 + libmatroska v1.4.0
    Video
    ID : 1
    Format : AVC
    Format/Info : Advanced Video Codec
    Format profile :High@L4.1
    Format settings, CABAC : Yes
    Format settings, ReFrames : 4 frames
    Codec ID : V_MPEG4/ISO/AVC
    Duration : 1h 42mn
    Bit rate : 5 704 Kbps
    Width : 1 920 pixels
    Height : 1 080 pixels
    Display aspect ratio : 16:9
    Frame rate : 23.976 fps
    Color space : YUV
    Chroma subsampling : 4:2:0
    Bit depth : 8 bits
    Scan type : Progressive
    Bits/(Pixel*Frame) : 0.115
    Stream size : 4.01 GiB (92%)
    Writing library : x264 core 130 r2273 b3065e6
    Encoding settings : cabac=1/ref=4/deblock=1:-3:-3/analyse=0x3:0x133/me=umh/subme=11/psy=1/psy_rd=1.00:0.15/mixed_ref=1/me_range=48/chroma_me=1/trellis=2/8x8dct=1/cqm=0/deadzone=21, 11/fast_pskip=0/chroma_qp_offset=-4/threads=6/lookahead_threads=1/sliced_threads=0/nr=0/decimate=1/interlaced=0/bluray_compat=0/constrained_intra=0/bframes=8/b_pyramid=2/b_adapt=2/b_bias=0/direct=2/weightb=1/open_gop=0/weightp=2/keyint=250/keyint_min=23/scenecut=40/intra_refresh=0/rc=2pass/mbtree=0/bitrate=5704/ratetol=1.0/qcomp=0.80/qpmin=0/qpmax=69/qpstep=4/cplxblur=20.0/qblur=0.5/ip_ratio=1.40/pb_ratio=1.30/aq=2:1.00
    Language : English
    Default : Yes
    Forced : No
    Color primaries : Generic film
    Matrix coefficients : YCgCo
    Audio
    ID : 2
    Format : AC-3
    Format/Info : Audio Coding 3
    Mode extension : CM (complete main)
    Codec ID : A_AC3
    Duration : 1h 42mn
    Bit rate mode : Constant
    Bit rate : 384 Kbps
    Channel(s) : 6 channels
    Channel positions : Front: L C R, Side: L R, LFE
    Sampling rate : 48.0 KHz
    Bit depth : 16 bits
    Compression mode : Lossy
    Stream size : 282 MiB (6%)
    Title : MVO (Киномания)
    Language : Russian
    Default : Yes
    Forced : No
    Menu
    00:00:00.000 : en:Chapter 1
    00:03:04.183 : en:Chapter 2
    00:09:57.888 : en:Chapter 3
    00:17:25.127 : en:Chapter 4
    00:25:07.255 : en:Chapter 5
    00:33:45.940 : en:Chapter 6
    00:40:50.531 : en:Chapter 7
    00:44:18.697 : en:Chapter 8
    00:47:38.522 : en:Chapter 9
    00:53:32.542 : en:Chapter 10
    01:00:08.938 : en:Chapter 11
    01:09:11.939 : en:Chapter 12
    01:16:45.100 : en:Chapter 13
    01:21:37.975 : en:Chapter 14
    01:26:33.062 : en:Chapter 15
    01:28:28.469 : en:Chapter 16
    01:30:20.247 : en:Chapter 17
    01:35:37.898 : en:Chapter 18
    01:39:35.594 : en:Chapter 19


    Скриншоты для ознакомления




    Онлайн видео Кладбище домашних животных



    Кладбище домашних животных/Pet Sematary (1989) BDRip [H.264/1080p-LQ]
    загрузка...
    Рейтинг →
     (голосов: 1, оценка 3/5, голосовать можно 1 раз )

    Другие торренты по теме:

  • Кладбище домашних животных 2 / Pet Sematary 2 (1992) WEB-DLRip [AVO]
  • Стивен Кинг | Кладбище домашних животных (2015) [MP3] скачать через торрент бесплатно


    • Комментарии (0):

      Информация

      Информация

        Посетители, находящиеся в группе Гости, не могут оставлять комментарии в данной новости.

        ↓ Меню




        ↓ Опрос

        Вы добавили сайт в закладки?
        Да
        Нет


        Top 10 за месяц (Фильмы)