.
Авторизация | Регистрация
Хочешь лучшие торренты? Добавь свой email!
Добавить

Торрент скачать бесплатно

» » Репортерша / Whiskey Tango Foxtrot (2016) BDRip [H.264 / 1080p-LQ] торрент скачать бесплатно




    Репортерша / Whiskey Tango Foxtrot (2016) BDRip [H.264 / 1080p-LQ] торрент скачать бесплатно

    Опубликовал: Админ | Дата: 23-07-2016, 04:00 | Просмотров: 59

    Производство: США/Broadway Video, Little Stranger, Paramount Pictures
    Жанр: Драма, Военный, Комедия
    Режиссер: Гленн Фикарра, Джон Рекуа

    Актеры
    Тина Фей, Марго Робби, Мартин Фриман, Альфред Молина, Кристофер Эбботт, Билли Боб Торнтон, Николас Браун, Стивен Пикок, Шейла Ванд, Эван Йоникит

    Описание

    Осознав, что она завязла в повседневной рутине, репортер Ким Бейкер решает встряхнуться и сменить кабинетные будни в Нью-Йорке на опасную работу в Афганистане. Вдали от дома и полностью за пределами собственной зоны комфорта, шокированная местными обычаями Ким заводит дружбу с рискованной репортершей Таней Вандерпоел, суровым Полковником и обаятельным фотожурналистом, которые помогают ей освоиться в этом сумасшедшем новом мире. Окруженная хаосом, Ким открывает свое истинное призвание - рисковать всем для поиска очередной главной новости.

    Возраст: 18+ (зрителям, достигшим 18 лет. Прикольно все это наверно придумал Европарламент потратив достаточно времени. запрещено для детей)
    Рейтинг MPAA: R (лицам до 17 лет обязательно присутствие взрослого)
    Дата мировой премьеры: 4 марта 2016
    Дата российской премьеры: 15 сентября 2016, Новый Диск
    Дата выхода DVD/Blu-ray релиза: 15 сентября 2016, Новый Диск
    Продолжительность: 01: 51: 48
    Качество видео: BDRip
    Перевод: Дублированный (iTunes)
    Видео: AVC/H.264, 1920x1080 (16: 9), ~4473 Kbps
    Аудио: AC3, 6 ch, 384 Kbps
    Код:

    General
    Unique ID : 186424808267687682152408061707741927355 (0x8C401CB0175AA28F830C1C87910597BB)
    Complete name : J:СборкаРепортерша. - Whiskey.Tango.Foxtrot.2016.1080p.BluRay.АС3.x264.mkv
    Format : Matroska
    Format version : Version 4/Version 2
    File size : 3.79 GiB
    Duration : 1h 51mn
    Overall bit rate : 4 856 Kbps
    Encoded date : UTC 2016-07-21 10:26:42
    Writing application : mkvmerge v7.3.0 (\'Nouages\') 32bit built on Oct 22 2014 18:44:01
    Writing library : libebml v1.3.0 + libmatroska v1.4.1
    DURATION : 01:51:46.528000000
    NUMBER_OF_FRAMES : 209579
    NUMBER_OF_BYTES : 321913344
    _STATISTICS_WRITING_APP : mkvmerge v7.3.0 (\'Nouages\') 32bit built on Oct 22 2014 18:44:01
    _STATISTICS_WRITING_DATE_UTC : 2016-07-21 10:26:42
    _STATISTICS_TAGS : BPS DURATION NUMBER_OF_FRAMES NUMBER_OF_BYTES
    Video #1
    ID : 1
    Format : AVC
    Format/Info : Advanced Video Codec
    Format profile :High@L4.1
    Format settings, CABAC : Yes
    Format settings, ReFrames : 4 frames
    Codec ID : V_MPEG4/ISO/AVC
    Duration : 1h 51mn
    Bit rate : 4 473 Kbps
    Width : 1 920 pixels
    Height : 1 080 pixels
    Display aspect ratio : 16:9
    Frame rate mode : Constant
    Frame rate : 23.976 fps
    Color space : YUV
    Chroma subsampling : 4:2:0
    Bit depth : 8 bits
    Scan type : Progressive
    Bits/(Pixel*Frame) : 0.090
    Stream size : 3.42 GiB (90%)
    Writing library : x264 core 148 r2638 7599210
    Encoding settings : cabac=1/ref=4/deblock=1:-1:-1/analyse=0x3:0x133/me=umh/subme=11/psy=1/psy_rd=1.00:0.15/mixed_ref=1/me_range=32/chroma_me=1/trellis=2/8x8dct=1/cqm=0/deadzone=21, 11/fast_pskip=0/chroma_qp_offset=-3/threads=12/lookahead_threads=1/sliced_threads=0/nr=0/decimate=1/interlaced=0/bluray_compat=0/constrained_intra=0/bframes=4/b_pyramid=2/b_adapt=2/b_bias=0/direct=3/weightb=1/open_gop=0/weightp=2/keyint=240/keyint_min=23/scenecut=40/intra_refresh=0/rc_lookahead=60/rc=2pass/mbtree=1/bitrate=4473/ratetol=1.0/qcomp=0.60/qpmin=0/qpmax=69/qpstep=4/cplxblur=20.0/qblur=0.5/ip_ratio=1.40/aq=1:1.00
    Default : Yes
    Forced : No
    Audio #2
    ID : 2
    Format : AC-3
    Format/Info : Audio Coding 3
    Mode extension : CM (complete main)
    Format settings, Endianness : Big
    Codec ID : A_AC3
    Duration : 1h 51mn
    Bit rate mode : Constant
    Bit rate : 384 Kbps
    Channel(s) : 6 channels
    Channel positions : Front: L C R, Side: L R, LFE
    Sampling rate : 48.0 KHz
    Bit depth : 16 bits
    Compression mode : Lossy
    Delay relative to video : 770ms
    Stream size : 307 MiB (8%)
    Default : Yes
    Forced : No


    Скриншоты для ознакомления




    Онлайн видео Репортерша



    Репортерша/Whiskey Tango Foxtrot (2016) BDRip [H.264/1080p-LQ]
    загрузка...
    Рейтинг →
     (голосов: 1, оценка 3/5, голосовать можно 1 раз )

    Другие торренты по теме:

  • Репортерша / Whiskey Tango Foxtrot (2016) WEB-DL [H.264 / 1080p-LQ] [EN / EN Sub]
  • Репортерша / Whiskey Tango Foxtrot (2016) HDRip
  • Репортерша / Whiskey Tango Foxtrot (2016) BDRip [H.264 / 1080p]
  • Репортерша / Whiskey Tango Foxtrot (2016) BDRip [H.264]
  • Репортерша / Whiskey Tango Foxtrot (2016) BDRip [H.264]
  • Репортерша / Whiskey Tango Foxtrot (2016) HDRip [H.264] [MP4|640x480@852x480]
  • Репортерша / Whiskey Tango Foxtrot (2016) BDRip [1080p] ATV
  • Репортерша / Whiskey Tango Foxtrot (2016) BDRemux [H.264 / 1080p]


    • Комментарии (0):

      Информация

      Информация

        Посетители, находящиеся в группе Гости, не могут оставлять комментарии в данной новости.

        ↓ Меню




        ↓ Опрос

        Вы добавили сайт в закладки?
        Да
        Нет


        Top 10 за месяц (Фильмы)