.
Авторизация | Регистрация
Хочешь лучшие торренты? Добавь свой email!
Добавить

Торрент скачать бесплатно

» » Очень странные дела / Крайне странные события / Загадочные события / Stranger Things (2016) WEBRip [H.264 / 2160p] (сезон 1, серии 1-8 из 8) Jaskier, NewStudio торрент скачать бесплатно




    Очень странные дела / Крайне странные события / Загадочные события / Stranger Things (2016) WEBRip [H.264 / 2160p] (сезон 1, серии 1-8 из 8) Jaskier, NewStudio торрент скачать бесплатно

    Опубликовал: Админ | Дата: 22-07-2016, 04:00 | Просмотров: 80

    Производство: США/21 Laps Entertainment
    Жанр: ужасы, триллер, драма
    Режиссер: Мэтт Даффер, Росс Даффер, Шон Леви

    Актеры
    Вайнона Райдер, Дэвид Харбор, Милли Бобби Браун, Калеб МакЛафлин, Ной Шнапп, Наталия Дайер, Чарли Хитон, Мэттью Модайн и др.

    Описание

    Главное действие нового телевизионного сериала разворачивается в 80-х годах на территории тихого провинциального города. О таком странном сюжете не догадывалась даже Юлия Володимировна. Благоприятное течение местной жизни нарушает загадочное исчезновение подростка по имени Уилл. Выяснить обстоятельства дела, полны решимости родные мальчика и местный шериф. Также события затрагивают лучшего друга Уилла – Майка. Он начинает собственное расследование, в процессе которого встречает группу людей со сверхспособностями. Теперь Майк уверен, что близок к разгадке, однако для этого ему предстоит оказаться в эпицентре ожесточенной битвы потусторонних сил.

    Дата мировой премьеры: 15 июля 2016
    Продолжительность: ~00: 50: 00 серия
    Качество видео: WEBRip 2160p
    Перевод: Многоголосый закадровый, профессиональный -Jaskier, NewStudio
    Вид субтитров: вшитые отключаемые
    Язык субтитров: английский
    Видео: H.264/AVC, 3840x1920, ~34, 6 kmb/s
    Аудио Rus: AC-3, 48, 0 kHz, 6 ch, 384 kb/s — многоголосый закадровыйJaskier
    Аудио Rus: AC-3, 48, 0 kHz, 6 ch, 384 kb/s — многоголосый закадровыйNewStudio
    Аудио Eng: AC-3, 48, 0 kHz, 6 ch, 384 kb/s — оригинал
    Код:

    General
    Unique ID : 227000683293822943023196929087583436454 (0xAAC6BDC824AC4C438D80BBDA8EB63EA6)
    Complete name : C:UsersAdminDesktop Stranger Things S01 WEBRip 2160p 2xRus Eng Subs by Stiles RG SerialSStranger Things S01E06 The Monster WEBRip 2160p 2xRus Eng Subs by Stiles RG SerialS.mkv
    Format : Matroska
    Format version : Version 4/Version 2
    File size : 11.9 GiB
    Duration : 46mn 32s
    Overall bit rate : 36.5 Mbps
    Movie name : Stranger Things 1x06 - Chapter Six: The Monster - Release by Stiles (RG SerialS)
    Encoded date : UTC 2016-07-21 08:26:51
    Writing application : mkvmerge v7.9.0 (\'Birds\') 64bit
    Writing library : libebml v1.3.1 + libmatroska v1.4.2
    Attachements : cover.jpg
    DURATION : 00:46:32.384000000
    NUMBER_OF_FRAMES : 87262
    NUMBER_OF_BYTES : 134034432
    _STATISTICS_WRITING_APP : mkvmerge v7.9.0 (\'Birds\') 64bit
    _STATISTICS_WRITING_DATE_UT : 2016-07-21 08:26:51
    _STATISTICS_TAGS : BPS DURATION NUMBER_OF_FRAMES NUMBER_OF_BYTES
    Video
    ID : 1
    Format : AVC
    Format/Info : Advanced Video Codec
    Format profile :High@L5.1
    Format settings, CABAC : Yes
    Format settings, ReFrames : 6 frames
    Codec ID : V_MPEG4/ISO/AVC
    Duration : 46mn 32s
    Bit rate : 34.6 Mbps
    Width : 3 840 pixels
    Height : 1 920 pixels
    Display aspect ratio : 2.000
    Frame rate mode : Constant
    Frame rate : 23.976 fps
    Color space : YUV
    Chroma subsampling : 4:2:0
    Bit depth : 8 bits
    Scan type : Progressive
    Bits/(Pixel*Frame) : 0.196
    Stream size : 11.2 GiB (95%)
    Writing library : x264 core 144 r2525 40bb568
    Encoding settings : cabac=1/ref=6/deblock=1:-3:-3/analyse=0x3:0x133/me=umh/subme=10/psy=1/psy_rd=1.00:0.00/mixed_ref=1/me_range=48/chroma_me=1/trellis=2/8x8dct=1/cqm=0/deadzone=21, 11/fast_pskip=1/chroma_qp_offset=-2/threads=12/lookahead_threads=2/sliced_threads=0/nr=0/decimate=1/interlaced=0/bluray_compat=0/constrained_intra=0/bframes=8/b_pyramid=2/b_adapt=2/b_bias=0/direct=3/weightb=1/open_gop=0/weightp=2/keyint=250/keyint_min=23/scenecut=40/intra_refresh=0/rc=crf/mbtree=0/crf=19.0/qcomp=0.60/qpmin=0/qpmax=69/qpstep=4/ip_ratio=1.30/pb_ratio=1.20/aq=3:0.80
    Language : English
    Default : Yes
    Forced : No
    DURATION : 00:45:45.118000000
    NUMBER_OF_FRAMES : 65817
    NUMBER_OF_BYTES : 12329365779
    _STATISTICS_WRITING_APP : mkvmerge v7.9.0 (\'Birds\') 64bit
    _STATISTICS_WRITING_DATE_UT : 2016-07-21 08:26:51
    _STATISTICS_TAGS : BPS DURATION NUMBER_OF_FRAMES NUMBER_OF_BYTES
    Audio #1
    ID : 2
    Format : AC-3
    Format/Info : Audio Coding 3
    Mode extension : CM (complete main)
    Format settings, Endianness : Big
    Codec ID : A_AC3
    Duration : 46mn 32s
    Bit rate mode : Constant
    Bit rate : 384 Kbps
    Channel(s) : 6 channels
    Channel positions : Front: L C R, Side: L R, LFE
    Sampling rate : 48.0 KHz
    Compression mode : Lossy
    Stream size : 128 MiB (1%)
    Title : Jaskier
    Language : Russian
    Default : Yes
    Forced : No
    Audio #2
    ID : 3
    Format : AC-3
    Format/Info : Audio Coding 3
    Mode extension : CM (complete main)
    Format settings, Endianness : Big
    Codec ID : A_AC3
    Duration : 46mn 32s
    Bit rate mode : Constant
    Bit rate : 384 Kbps
    Channel(s) : 6 channels
    Channel positions : Front: L C R, Side: L R, LFE
    Sampling rate : 48.0 KHz
    Compression mode : Lossy
    Stream size : 128 MiB (1%)
    Title : NewStudio
    Language : Russian
    Default : No
    Forced : No
    Audio #3
    ID : 4
    Format : AC-3
    Format/Info : Audio Coding 3
    Mode extension : CM (complete main)
    Format settings, Endianness : Big
    Codec ID : A_AC3
    Duration : 46mn 32s
    Bit rate mode : Constant
    Bit rate : 384 Kbps
    Channel(s) : 6 channels
    Channel positions : Front: L C R, Side: L R, LFE
    Sampling rate : 48.0 KHz
    Compression mode : Lossy
    Stream size : 128 MiB (1%)
    Language : English
    Default : No
    Forced : No
    Text
    ID : 5
    Format : UTF-8
    Codec ID : S_TEXT/UTF8
    Codec ID/Info : UTF-8 Plain Text
    Language : English
    Default : No
    Forced : No


    Скриншоты для ознакомления




    Онлайн видео Очень странные дела



    Очень странные дела/Крайне странные события/Загадочные события/Stranger Things (2016) WEBRip [H.264/2160p] (сезон 1, серии 1-8 из 8) Jaskier, NewStudio
    загрузка...
    Рейтинг →
     (голосов: 1, оценка 3/5, голосовать можно 1 раз )

    Другие торренты по теме:

  • Очень странные дела / Загадочные события / Stranger Things (2016) WEBRip [H.264 / 720p -LQ] (сезон 1, серии 1-3 из 8) NewStudio (обновляемая)
  • Очень странные дела / Загадочные события / Stranger Things (2016) WEBRip (сезон 1, серии 1-3 из 8) NewStudio (обновляемая)
  • Очень странные дела / Stranger Things (2016) WEBRip [H.264 / 720p-LQ] (сезон 1, серии 1-8 из 8) ColdFilm
  • Очень странные дела / Stranger Things (2016) WEB [H.264 / 1080p-LQ] (сезон 1, серии 1-3 из 8) NewStudio (обновляемая)
  • Очень странные дела / Загадочные события / Stranger Things (2016) WEBRip (сезон 1, серии 1 из 8) LostFilm (обновляемая)
  • Очень странные дела / Загадочные события / Stranger Things (2016) WEBRip [H.264 / 1080p-LQ] (сезон 1, серии 1 из 8) LostFilm (обновляемая)
  • Очень странные дела / Загадочные события / Stranger Things (2016) WEBRip [H.264 / 1080p] (сезон 1, серии 1 из 8) LostFilm (обновляемая)
  • Очень странные дела / Загадочные события / Stranger Things (2016) WEB-DLRip [H.264 / 720p-LQ] (сезон 1, серии 1-8 из 8) Jaskier


    • Комментарии (0):

      Информация

      Информация

        Посетители, находящиеся в группе Гости, не могут оставлять комментарии в данной новости.

        ↓ Меню




        ↓ Опрос

        Вы добавили сайт в закладки?
        Да
        Нет


        Top 10 за месяц (Фильмы)