.
Авторизация | Регистрация
Хочешь лучшие торренты? Добавь свой email!
Добавить

Торрент скачать бесплатно

» » Милые обманщицы / Pretty Little Liars (2016) WEB-DL [H.264 / 1080p-LQ] (сезон 7, серии 1-4 из 20) NewStudio (обновляемая) торрент скачать бесплатно




    Милые обманщицы / Pretty Little Liars (2016) WEB-DL [H.264 / 1080p-LQ] (сезон 7, серии 1-4 из 20) NewStudio (обновляемая) торрент скачать бесплатно

    Опубликовал: Админ | Дата: 22-07-2016, 04:00 | Просмотров: 69

    Производство: США
    Жанр: триллер, драма, мелодрама, детектив
    Режиссер: Норман Баккли, Рон Лагомарсино, Крис Грисмер

    Актеры
    Люси Хейл, Тройэн Эвери Беллисарио, Эшли Бенсон, Холли Мари Комбс, Лора Лейтон, Чад Лоу, Шэй Митчел и др.

    Описание

    Эра террора таинственным А завершена, ведь Милые обманщицы рассекретили, кто же скрывается за этой злосчастной буквой. Однако это не значит, что обманщицы могут вздохнуть с облегчением и расслабиться.

    Продолжительность: ~00: 43: 00 серия
    Качество видео: WEB-DL
    Перевод: Многоголосый закадровый, профессиональный -NewStudio
    Реклама: присутствуют видео, аудио вставки рекламы.
    Видео : AVC/H.264, 1916х1076 (16: 9), ~5097 Kbps
    Аудио #1 Rus: AC3, 6 ch, 384 kbps - многоголосый закадровый
    Аудио #2 Eng: AC3, 6 ch, 384 kbps - оригинальный
    Код:

    Pretty.Little.Liars.s07e01.WEBDL.1080p.NewStudio.mkv
    Format : Matroska
    Format version : Version 4/Version 2
    File size : 1.75 GiB
    Duration : 42 min
    Overall bit rate : 5 867 kb/s
    Encoded date : UTC 2016-06-24 06:18:47
    Writing application : mkvmerge v8.2.0 (\'World of Adventure\') 32bit
    Writing library : libebml v1.3.1 + libmatroska v1.4.2
    Cover : Yes
    Attachments : small_cover.jpg/cover.jpg/cover_land.jpg/small_cover_land.jpg
    Video
    ID : 1
    Format : AVC
    Format/Info : Advanced Video Codec
    Format profile : High@L4
    Format settings, CABAC : Yes
    Format settings, ReFrames : 4 frames
    Codec ID : V_MPEG4/ISO/AVC
    Duration : 42 min
    Bit rate : 5 097 kb/s
    Width : 1 916 pixels
    Height : 1 076 pixels
    Display aspect ratio : 16:9
    Frame rate mode : Constant
    Frame rate : 23.976 (23976/1000) FPS
    Color space : YUV
    Chroma subsampling : 4:2:0
    Bit depth : 8 bits
    Scan type : Progressive
    Bits/(Pixel*Frame) : 0.103
    Stream size : 1.52 GiB (87%)
    Language : English
    Default : Yes
    Forced : No
    Color range : Limited
    Color primaries : BT.709
    Transfer characteristics : BT.709
    Matrix coefficients : BT.709
    Audio #1
    ID : 2
    Format : AC-3
    Format/Info : Audio Coding 3
    Mode extension : CM (complete main)
    Format settings, Endianness : Big
    Codec ID : A_AC3
    Duration : 42 min
    Bit rate mode : Constant
    Bit rate : 384 kb/s
    Channel(s) : 6 channels
    Channel positions : Front: L C R, Side: L R, LFE
    Sampling rate : 48.0 kHz
    Frame rate : 31.250 FPS (1536 spf)
    Compression mode : Lossy
    Stream size : 117 MiB (7%)
    Title : NewStudio.TV
    Language : Russian
    Default : Yes
    Forced : No
    Audio #2
    ID : 3
    Format : AC-3
    Format/Info : Audio Coding 3
    Mode extension : CM (complete main)
    Format settings, Endianness : Big
    Codec ID : A_AC3
    Duration : 42 min
    Bit rate mode : Constant
    Bit rate : 384 kb/s
    Channel(s) : 6 channels
    Channel positions : Front: L C R, Side: L R, LFE
    Sampling rate : 48.0 kHz
    Frame rate : 31.250 FPS (1536 spf)
    Compression mode : Lossy
    Stream size : 117 MiB (7%)
    Language : English
    Default : No
    Forced : No


    Скриншоты для ознакомления




    Онлайн видео Милые обманщицы



    Милые обманщицы/Pretty Little Liars (2016) WEB-DL [H.264/1080p-LQ] (сезон 7, серии 1-4 из 20) NewStudio (обновляемая)
    загрузка...
    Рейтинг →
     (голосов: 1, оценка 3/5, голосовать можно 1 раз )

    Другие торренты по теме:

  • Милые обманщицы / Pretty Little Liars (2014) WEB-DLRip (Сезон 5 / Серии 1-12 из 25()) NewStudio (обновляемая) скачать через торрент бесплатно
  • Милые обманщицы / Pretty Little Liars (2015) WEB-DLRip (сезон 6, серии 1 из 20()) NewStudio (обновляемая) скачать через торрент бесплатно
  • Сара Шепард | Милые обманщицы (2015) [FB2]


    • Комментарии (0):

      Информация

      Информация

        Посетители, находящиеся в группе Гости, не могут оставлять комментарии в данной новости.

        ↓ Меню




        ↓ Опрос

        Вы добавили сайт в закладки?
        Да
        Нет


        Top 10 за месяц (Фильмы)