.
Авторизация | Регистрация
Хочешь лучшие торренты? Добавь свой email!
Добавить

Торрент скачать бесплатно

» » Хардкор / Hardcore Henry (2015) BDRip [H.264 / 1080p] торрент скачать бесплатно




    Хардкор / Hardcore Henry (2015) BDRip [H.264 / 1080p] торрент скачать бесплатно

    Опубликовал: Админ | Дата: 21-07-2016, 04:01 | Просмотров: 57

    Производство: Россия, США, Базелевс Продакшн, Robusto
    Жанр: Боевик, Фантастика
    Режиссер: Илья Найшуллер

    Актеры
    Шарлто Копли, Данила Козловский, Хейли Беннетт, Андрей Дементьев, Сергей Шнуров, Кирилл Серебренников, Александр Паль, Светлана Устинова, Даша Чаруша, Равшана Куркова, ...

    Описание

    Прекрасная супружеская жизнь рядом с очаровательной Эстель — это все, что помнит главный герой после того, как просыпается в неизвестной научной лаборатории, где в чувства его приводит собственная жена. Прикольно все это наверно придумал Халк потратив достаточно времени. Но супруга тут же оказывается похищенной, и ничего не понимающий главный герой Генри уже вынужден преследовать монстра Акана, который украл его жену.
    Теперь ради достижения цели Генри готов на многое. Но позже оказывается, что не только он один является врагом для Акана. У подозрительного Джимми тоже свои планы на злодея. Самое интересное в это истории, что об этом Халк ничего не знал. Теперь вместе ребятам предстоит спасти Эстель и предотвратить попытку задействовать армию киборгов в борьбе с человечеством. Им предстоит бороться с самим воплощением зла.

    Возраст: 18+ (зрителям, достигшим 18 лет. запрещено для детей)
    Рейтинг MPAA: R (лицам до 17 лет обязательно присутствие взрослого)
    Дата мировой премьеры: 12 сентября 2015
    Дата премьеры в России: 7 апреля 2016

    Продолжительность: 01: 36: 50
    Качество видео: BDRip 1080p
    Перевод: Дублированный (iTunes), Авторский (одноголосый, закадровый) (А. Киреев)- по переводу Гоблина
    Язык субтитров: Английский
    Вид субтитров: Вшитые отключаемые
    Видео: AVC/H.264, 1920x1036, (1, 85: 1), 10.2 Mbps, 23, 976 fps
    Аудио: AC3, 6 ch, 384 kbps - Русский, Дубляж
    Аудио: AC3, 6 ch, 448 kbps - Русский, А. Киреев
    Аудио: AC3, 6 ch, 448 kbps - Английский
    Код:

    Общее
    Уникальный идентификатор : 178148180598298585000628322824369324666 (0x8606177029FC0617A6F0F7F1B46DC27A)
    Полное имя : C:TempХардкор.2015.BDRip.1080p.mkv
    Формат : Matroska
    Версия формата : Version 2
    Размер файла : 7, 75 Гбайт
    Продолжительность : 1 ч. 36 м.
    Общий поток : 11, 5 Мбит/сек
    Название фильма : Hardcore Henry.2015.BDRip.1080p
    Дата кодирования : UTC 2016-07-19 21:25:10
    Программа кодирования : mkvmerge v4.0.0 (\'The Stars were mine\') сборка от Jun 6 2010 16:18:42
    Библиотека кодирования : libebml v1.0.0 + libmatroska v1.0.0
    Видео
    Идентификатор : 1
    Формат : AVC
    Формат/Информация : Advanced Video Codec
    Профиль формата :High@L4.1
    Параметр CABAC формата : Да
    Параметр ReFrames формата : 4 кадра
    Идентификатор кодека : V_MPEG4/ISO/AVC
    Продолжительность : 1 ч. 36 м.
    Битрейт : 10, 2 Мбит/сек
    Ширина : 1920 пикселей
    Высота : 1036 пикселей
    Соотношение сторон : 1, 85:1
    Режим частоты кадров : Постоянный
    Частота кадров : 23, 976 (23976/1000) кадра/сек
    Цветовое пространство : YUV
    Субдискретизация насыщенности : 4:2:0
    Битовая глубина : 8 бит
    Тип развёртки : Прогрессивная
    Бит/(Пиксели*Кадры) : 0.214
    Размер потока : 6, 73 Гбайт (87%)
    Заголовок : rip by -=walledol=-
    Библиотека кодирования : x264 core 148 r2705 3f5ed56
    Настройки программы : cabac=1/ref=4/deblock=1:-3:-3/analyse=0x3:0x133/me=umh/subme=10/psy=1/psy_rd=1.00:0.10/mixed_ref=1/me_range=32/chroma_me=1/trellis=2/8x8dct=1/cqm=0/deadzone=21, 11/fast_pskip=0/chroma_qp_offset=-3/threads=6/lookahead_threads=1/sliced_threads=0/nr=0/decimate=1/interlaced=0/bluray_compat=0/constrained_intra=0/bframes=8/b_pyramid=2/b_adapt=2/b_bias=0/direct=3/weightb=1/open_gop=0/weightp=2/keyint=240/keyint_min=23/scenecut=40/intra_refresh=0/rc=2pass/mbtree=0/bitrate=10190/ratetol=1.0/qcomp=0.60/qpmin=0/qpmax=69/qpstep=4/cplxblur=20.0/qblur=0.5/ip_ratio=1.40/pb_ratio=1.30/aq=1:0.80
    Язык : English
    Default : Нет
    Forced : Нет
    Аудио #1
    Идентификатор : 2
    Формат : AC-3
    Формат/Информация : Audio Coding 3
    Расширение режима : CM (complete main)
    Параметр Endianness формата : Big
    Идентификатор кодека : A_AC3
    Продолжительность : 1 ч. 36 м.
    Вид битрейта : Постоянный
    Битрейт : 384 Кбит/сек
    Каналы : 6 каналов
    Расположение каналов : Front: L C R, Side: L R, LFE
    Частота : 48, 0 КГц
    Частота кадров : 31, 250 кадров/сек (1536 spf)
    Метод сжатия : С потерями
    Размер потока : 266 Мбайт (3%)
    Заголовок : DUB [iTunes]
    Язык : Russian
    Default : Да
    Forced : Да
    Аудио #2
    Идентификатор : 3
    Формат : AC-3
    Формат/Информация : Audio Coding 3
    Расширение режима : CM (complete main)
    Параметр Endianness формата : Big
    Идентификатор кодека : A_AC3
    Продолжительность : 1 ч. 36 м.
    Вид битрейта : Постоянный
    Битрейт : 448 Кбит/сек
    Каналы : 6 каналов
    Расположение каналов : Front: L C R, Side: L R, LFE
    Частота : 48, 0 КГц
    Частота кадров : 31, 250 кадров/сек (1536 spf)
    Метод сжатия : С потерями
    Размер потока : 310 Мбайт (4%)
    Заголовок : Киреев
    Язык : Russian
    Default : Нет
    Forced : Нет
    Аудио #3
    Идентификатор : 4
    Формат : AC-3
    Формат/Информация : Audio Coding 3
    Расширение режима : CM (complete main)
    Параметр Endianness формата : Big
    Идентификатор кодека : A_AC3
    Продолжительность : 1 ч. 36 м.
    Вид битрейта : Постоянный
    Битрейт : 448 Кбит/сек
    Каналы : 6 каналов
    Расположение каналов : Front: L C R, Side: L R, LFE
    Частота : 48, 0 КГц
    Частота кадров : 31, 250 кадров/сек (1536 spf)
    Метод сжатия : С потерями
    Размер потока : 310 Мбайт (4%)
    Язык : English
    Default : Нет
    Forced : Нет
    Текст
    Идентификатор : 5
    Формат : UTF-8
    Идентификатор кодека : S_TEXT/UTF8
    Идентификатор кодека/Информация : UTF-8 Plain Text
    Язык : English
    Default : Нет
    Forced : Нет
    Меню
    00:00:00.000 : en:00:00:00.000
    00:04:04.494 : en:00:04:04.494
    00:08:36.641 : en:00:08:36.641
    00:14:12.935 : en:00:14:12.935
    00:18:45.333 : en:00:18:45.333
    00:22:38.816 : en:00:22:38.816
    00:26:12.237 : en:00:26:12.237
    00:30:05.345 : en:00:30:05.345
    00:34:30.193 : en:00:34:30.193
    00:37:44.429 : en:00:37:44.429
    00:42:19.537 : en:00:42:19.537
    00:47:05.406 : en:00:47:05.406
    00:52:51.085 : en:00:52:51.085
    00:56:00.482 : en:00:56:00.482
    01:03:47.824 : en:01:03:47.824
    01:11:23.988 : en:01:11:23.988
    01:15:54.884 : en:01:15:54.884
    01:22:04.670 : en:01:22:04.670
    01:24:10.045 : en:01:24:10.045
    01:29:31.116 : en:01:29:31.116
    • По словам Ильи Найшуллера, предложение от Тимура Бекмамбетова о сотрудничестве поступило к нему через социальную сеть.
    • Несмотря на насыщенность фильма событиями, по сюжету, действие Хардкора занимает всего один день.
    • Для съемок фильма использовалась камера GoPro, получившая широкую популярность среди любителей экстремального отдыха. Специально для создания фильма была разработана уникальная технология стабилизации камеры – Adventure mask.
    • Роль танкиста, которую сыграл Кирилл Серебренников, мог исполнить Дмитрий Пучков.
    • На роль злодея долго не могли подобрать актера, в результате так и остановились на изначальной кандидатуре Данилы Козловского. Когда ему впервые предложили эту роль, он был занят в другом проекте. За несколько месяцев более подходящего актера не нашлось, и как только Данила освободился, сразу же согласился участвовать в проекте.
    • Фильм стал развитием темы и стилистики видеоряда вышедшего весной 2013 года клипа на песню Bad Motherfucker инди-рок-группы Biting Elbows. Ролик быстро стал популярным, собрав за месяц более 23 миллионов просмотров на YouTube. На видео, снятое от первого лица, обратил внимание Тимур Бекмамбетов, который предложил автору ролика создать полнометражную ленту. Илья Найшуллер вначале отказался от этого предложения, но затем принял его и стал сценаристом и режиссёром Хардкора.
    • Кампания по сбору средств на съемки фильма проходила на краудфандинговом портале Indiegogo и завершилась 19 декабря 2014. Общий сбор от 2078 человек составил $254 954.
    • Для изменения цвета глаз Данилы Козловского гримеры использовали линзы, которые были вдвое толще обычных и были окрашены вручную в голубой цвет.


    Скриншоты для ознакомления




    Онлайн видео Хардкор



    Хардкор/Hardcore Henry (2015) BDRip [H.264/1080p]
    загрузка...
    Рейтинг →
     (голосов: 1, оценка 4/5, голосовать можно 1 раз )

    Другие торренты по теме:

  • Хардкор / Hardcore (2015) WEBRip [H.264 / 1080p] [Трейлер] [EN] скачать через торрент бесплатно
  • Хардкор / Hardcore Henry (2015) HD-TS [H.264] [EN]
  • Хардкор / Hardcore Henry (2015) CAMRip [H.264] [AVO]
  • Хардкор / Hardcore Henry (2015) CAMRip
  • Хардкор / Hardcore Henry (2015) WEBRip [Звук с CAMRip]
  • Хардкор / Hardcore Henry (2015) WEBRip [H.264 / 720p-LQ] [звук с CAMRip]
  • Хардкор / Hardcore Henry (2015) WEBRip [H.264 / 720p-LQ] [Звук с CamRip]
  • Хардкор / Hardcore Henry (2015) WEBRip [H.264 / 720p-LQ] [Line]


    • Комментарии (0):

      Информация

      Информация

        Посетители, находящиеся в группе Гости, не могут оставлять комментарии в данной новости.

        ↓ Меню




        ↓ Опрос

        Вы добавили сайт в закладки?
        Да
        Нет


        Top 10 за месяц (Фильмы)