.
Авторизация | Регистрация
Хочешь лучшие торренты? Добавь свой email!
Добавить

Торрент скачать бесплатно

» » Завучи / Vice Principals (2016) HDTVRip (сезон 1, серии 1 из 9) NewStudio (обновляемая) торрент скачать бесплатно




    Завучи / Vice Principals (2016) HDTVRip (сезон 1, серии 1 из 9) NewStudio (обновляемая) торрент скачать бесплатно

    Опубликовал: Админ | Дата: 21-07-2016, 04:01 | Просмотров: 10338

    Производство: США/Home Box Office (HBO), Rough House Pictures
    Жанр: комедия
    Режиссер: Дэвид Гордон Грин, Дэнни МакБрайд

    Актеры
    Дэнни МакБрайд, Уолтон Гоггинс, Джорджия Кинг, Кимберли Хеберт Грегори, Шон МакКинни, Эди Паттерсон, Эшли Спайллерс, Сьюзэн Парк, Бизи Филиппс, Дженнифер Гатти и др.

    Описание

    Черная комедия про двух истеричных завучей средней школы, которые по иронии судьбы отвечают за дисциплину и учебный план. Прикольно все это наверно придумал Европарламент потратив достаточно времени. После того, как директор уходит на пенсию, завучи затевают эпическую борьбу за трон.

    Дата мировой премьеры: 17 июля 2016
    Продолжительность: ~00: 30: 00 серия
    Качество видео: HDTVRip
    Перевод: Многоголосый закадровый, профессиональный -NewStudio (ненормативная лексика)
    Автор перевода: Юрий Башенкер
    Вид субтитров: вшитые неотключаемые (форсированные)
    Язык субтитров: русский
    Внимание! Присутствует ненормативная лексика.
    Видео: XviD, 720x400 (16: 9), ~1300 kb/s
    Аудио Rus: MPEG Layer 3, 48, 0 kHz, 2 ch, 128 kb/s — многоголосый закадровый
    Аудио Eng: MPEG Layer 3, 48, 0 kHz, 2 ch, 128 kb/s — оригинал
    Код:

    Общее
    Полное имя : D:Завучи (сезон любимого сериала 1) Vice Principals (2016) HDTVRip - NewStudioVice.Principals.S01E01.HDTVRip.Rus.Eng.DV.NewStudio.avi
    Формат : AVI
    Формат/Информация : Audio Video Interleave
    Размер файла : 339 Мбайт
    Продолжительность : 30 м.
    Общий поток : 1564 Кбит/сек
    Название фильма : Vice.Principals.S01E01.HDTVRip.Rus.Eng.DV.NewStudio/NNM-Club
    Программа кодирования : VirtualDubModRus 1.5.10.2 (build 2542/release)
    Библиотека кодирования : VirtualDubMod build 2542/release
    Видео
    Идентификатор : 0
    Формат : MPEG-4 Visual
    Профиль формата : Advanced Simple@L5
    Параметр BVOP формата : 2
    Параметр QPel формата : Да
    Параметр GMC формата : Без точки перехода
    Параметр матрицы формата : Default (MPEG)
    Режим смешивания : Сжатый битовый поток
    Идентификатор кодека : XVID
    Идентификатор кодека/Подсказка : XviD
    Продолжительность : 30 м.
    Битрейт : 1294 Кбит/сек
    Ширина : 720 пикселей
    Высота : 400 пикселей
    Соотношение сторон : 16:9
    Частота кадров : 23, 976 (23976/1000) кадра/сек
    Цветовое пространство : YUV
    Субдискретизация насыщенности : 4:2:0
    Битовая глубина : 8 бит
    Тип развёртки : Прогрессивная
    Метод сжатия : С потерями
    Бит/(Пиксели*Кадры) : 0.187
    Размер потока : 281 Мбайт (83%)
    Библиотека кодирования : XviD 73
    Аудио #1
    Идентификатор : 1
    Формат : MPEG Audio
    Версия формата : Version 1
    Профиль формата : Layer 3
    Режим : Joint stereo
    Расширение режима : MS Stereo
    Идентификатор кодека : 55
    Идентификатор кодека/Подсказка : MP3
    Продолжительность : 30 м.
    Вид битрейта : Постоянный
    Битрейт : 128 Кбит/сек
    Каналы : 2 канала
    Частота : 48, 0 КГц
    Метод сжатия : С потерями
    Размер потока : 27, 8 Мбайт (8%)
    Выравнивание : Соединение по промежуткам
    Продолжительность промежутка : 42 мс. (1, 00 видеокадр)
    Время предзагрузки промежутка : 504 мс.
    Аудио #2
    Идентификатор : 2
    Формат : MPEG Audio
    Версия формата : Version 1
    Профиль формата : Layer 3
    Режим : Joint stereo
    Идентификатор кодека : 55
    Идентификатор кодека/Подсказка : MP3
    Продолжительность : 30 м.
    Вид битрейта : Постоянный
    Битрейт : 128 Кбит/сек
    Каналы : 2 канала
    Частота : 48, 0 КГц
    Метод сжатия : С потерями
    Размер потока : 27, 8 Мбайт (8%)
    Выравнивание : Соединение по промежуткам
    Продолжительность промежутка : 42 мс. (1, 00 видеокадр)
    Время предзагрузки промежутка : 504 мс.


    Скриншоты для ознакомления




    Онлайн видео Завучи



    Завучи/Vice Principals (2016) HDTVRip (сезон 1, серии 1 из 9) NewStudio (обновляемая)
    загрузка...
    Рейтинг →
     (голосов: 1, оценка 3/5, голосовать можно 1 раз )

    Другие торренты по теме:

  • Завучи / Vice Principals (2016) HDTVRip [H.264 / 720p-LQ] (сезон 1, серии 1 из 9) Кураж-Бамбей (обновляемая)
  • Завучи / Vice Principals (2016) HDTV [H.264 / 720p-LQ] (сезон 1, серии 1 из 9) OMSKBIRD (обновляемая)
  • Завучи / Vice Principals (2016) HDTVRip (сезон 1, серии 1 из 9) OMSKBIRD (обновляемая)
  • Завучи / Vice Principals (2016) HDTV [H.264 / 720p-LQ] (сезон 1, серии 1 из 9) BaibaKo (обновляемая)
  • Завучи / Vice Principals (2016) HDTVRip [H.264 / 720p-LQ] (сезон 1, серии 1 из 9) NewStudio (обновляемая)
  • Завучи / Vice Principals (2016) HDTV [H.264 / 720p-LQ] (сезон 1, серии 1 из 9) IdeaFilm (обновляемая)
  • Завучи / Vice Principals (2017) WEB-DL [H.264 / 1080p-LQ] (сезон 2, серии 1 из 9) OMSKBIRD (обновляемая) [AD]


    • Комментарии (0):

      Информация

      Информация

        Посетители, находящиеся в группе Гости, не могут оставлять комментарии в данной новости.

        ↓ Меню




        ↓ Опрос

        Вы добавили сайт в закладки?
        Да
        Нет


        Top 10 за месяц (Фильмы)