.
Авторизация | Регистрация
Хочешь лучшие торренты? Добавь свой email!
Добавить

Торрент скачать бесплатно

» » Разрушение / Demolition (2015) BDRip [H.264 / 720p] торрент скачать бесплатно




    Разрушение / Demolition (2015) BDRip [H.264 / 720p] торрент скачать бесплатно

    Опубликовал: Админ | Дата: 20-07-2016, 04:00 | Просмотров: 343

    Производство: США, Black Label Media, Mr. Mudd, Right of Way Films, Sidney Kimmel Entertainment
    Жанр: Драма, Комедия
    Режиссер: Жан-Марк Валле

    Актеры
    Джейк Джилленхол, Наоми Уоттс, Крис Купер, Джуда Льюис, С.Дж. О таком странном сюжете не догадывалась даже Юлия Володимировна. Уилсон, Полли Дрэйпер, Мэлаки Клири, Дебра Монк, Хезер Линд, Уасс М. Стивенс, Блэйр Брукс, Бен Коул, Брендан Дулинг, Джеймс Колби, Альфредо Нарцисо ...

    Описание

    Когда банкир Дэвис узнал, что его жена мертва, он захотел купить шоколадный батончик в торговом автомате, но тот оказался сломан. Переживая горе, Дэвис начинает крушить дом, мебель, машину, строчить жалобы в обслуживающую торговые автоматы фирму. А в письмах он… рассказывает историю своей любви. Блошиный рынок, сказал кто то из толпы, к чему не понятно. Скоро ему отвечает Карен, менеджер компании, но сможет ли она спасти Дэвиса из эмоциональной пропасти?..

    Возраст: 18+ (зрителям, достигшим 18 лет. Прикольно все это наверно придумал Уил Смит потратив достаточно времени. запрещено для детей)
    Рейтинг MPAA: R (лицам до 17 лет обязательно присутствие взрослого)
    Премьера (мир): 10 сентября 2015, ...
    Премьера (РФ): 30 июня 2016, Парадиз

    Продолжительность: 01: 40: 54
    Качество видео: BDRip 720p
    Перевод: Дублированный (iTunes)
    Язык субтитров: Английский
    Вид субтитров: Вшитые отключаемые
    Видео: AVC/H.264, 1280x544, (2.35: 1), 7 534 Kbps, 23, 976 fps
    Аудио: AC3, 6 ch, 384 kbps - Русский
    Аудио: DTS, 6 ch, 1509 kbps - Английский
    Код:

    General
    Unique ID : 226394692505646662498661099770866824561 (0xAA5208211367266FA46938696BE3F571)
    Complete name : F:VideoDemolition.2015.D.BDRip.720p.ExKinoRay.mkv
    Format : Matroska
    Format version : Version 4/Version 2
    File size : 6.64 GiB
    Duration : 1h 40mn
    Overall bit rate : 9 429 Kbps
    Movie name : Demolition.2015.D.BDRip.720p.ExKinoRay
    Encoded date : UTC 2016-07-18 00:51:19
    Writing application : mkvmerge v8.3.0 (\'Over the Horizon\') 64bit
    Writing library : libebml v1.3.1 + libmatroska v1.4.2
    Video
    ID : 1
    Format : AVC
    Format/Info : Advanced Video Codec
    Format profile :High@L4.1
    Format settings, CABAC : Yes
    Format settings, ReFrames : 12 frames
    Codec ID : V_MPEG4/ISO/AVC
    Duration : 1h 40mn
    Bit rate : 7 534 Kbps
    Width : 1 280 pixels
    Height : 544 pixels
    Display aspect ratio : 2.35:1
    Frame rate mode : Constant
    Frame rate : 23.976 (24000/1001) fps
    Color space : YUV
    Chroma subsampling : 4:2:0
    Bit depth : 8 bits
    Scan type : Progressive
    Bits/(Pixel*Frame) : 0.451
    Stream size : 5.31 GiB (80%)
    Writing library : x264 core 148 r2705+54 9f484c1 t_mod_Custom [8-bit@all X86_64]
    Encoding settings : cabac=1/ref=12/deblock=1:-3:-3/analyse=0x3:0x133/me=umh/subme=11/psy=1/fade_compensate=0.00/psy_rd=0.96:0.00/mixed_ref=1/me_range=32/chroma_me=1/trellis=2/8x8dct=1/cqm=0/deadzone=21, 11/fast_pskip=0/chroma_qp_offset=-2/threads=6/lookahead_threads=1/sliced_threads=0/nr=0/decimate=0/interlaced=0/bluray_compat=0/constrained_intra=0/fgo=0/bframes=8/b_pyramid=2/b_adapt=2/b_bias=0/direct=3/weightb=1/open_gop=0/weightp=2/keyint=250/keyint_min=23/scenecut=40/intra_refresh=0/rc_lookahead=60/rc=crf/mbtree=0/crf=15.7000/qcomp=0.64/qpmin=0:0:0/qpmax=69:69:69/qpstep=4/vbv_maxrate=30000/vbv_bufsize=38000/crf_max=0.0/nal_hrd=none/filler=0/ip_ratio=1.20/pb_ratio=1.10/aq=3:0.75/aq-sensitivity=10.00/aq-factor=1.00:1.00:1.00/aq2=0/aq3=0
    Language : English
    Default : Yes
    Forced : No
    Audio #1
    ID : 2
    Format : AC-3
    Format/Info : Audio Coding 3
    Mode extension : CM (complete main)
    Format settings, Endianness : Big
    Codec ID : A_AC3
    Duration : 1h 40mn
    Bit rate mode : Constant
    Bit rate : 384 Kbps
    Channel(s) : 6 channels
    Channel positions : Front: L C R, Side: L R, LFE
    Sampling rate : 48.0 KHz
    Frame rate : 31.250 fps (1536 spf)
    Compression mode : Lossy
    Stream size : 277 MiB (4%)
    Title : DUB [iTunes]
    Language : Russian
    Default : Yes
    Forced : No
    Audio #2
    ID : 3
    Format : DTS
    Format/Info : Digital Theater Systems
    Mode : 16
    Format settings, Endianness : Big
    Codec ID : A_DTS
    Duration : 1h 40mn
    Bit rate mode : Constant
    Bit rate : 1 509 Kbps
    Channel(s) : 6 channels
    Channel positions : Front: L C R, Side: L R, LFE
    Sampling rate : 48.0 KHz
    Frame rate : 93.750 fps (512 spf)
    Bit depth : 24 bits
    Compression mode : Lossy
    Stream size : 1.06 GiB (16%)
    Title : Original
    Language : English
    Default : No
    Forced : No
    Text #1
    ID : 4
    Format : UTF-8
    Codec ID : S_TEXT/UTF8
    Codec ID/Info : UTF-8 Plain Text
    Duration : 1h 39mn
    Bit rate : 51 bps
    Count of elements : 1256
    Stream size : 37.5 KiB (0%)
    Title : Full
    Language : English
    Default : No
    Forced : No
    Text #2
    ID : 5
    Format : UTF-8
    Codec ID : S_TEXT/UTF8
    Codec ID/Info : UTF-8 Plain Text
    Duration : 1h 39mn
    Bit rate : 57 bps
    Count of elements : 1440
    Stream size : 41.9 KiB (0%)
    Title : SDH
    Language : English
    Default : No
    Forced : No
    Menu
    00:00:00.000 : en:00:00:00.000
    00:03:09.815 : en:00:03:09.815
    00:07:28.281 : en:00:07:28.281
    00:11:11.671 : en:00:11:11.671
    00:15:55.997 : en:00:15:55.997
    00:19:23.037 : en:00:19:23.037
    00:23:14.768 : en:00:23:14.768
    00:28:21.325 : en:00:28:21.325
    00:32:39.040 : en:00:32:39.040
    00:37:16.693 : en:00:37:16.693
    00:42:31.382 : en:00:42:31.382
    00:47:09.952 : en:00:47:09.952
    00:51:39.805 : en:00:51:39.805
    00:56:23.005 : en:00:56:23.005
    01:00:27.290 : en:01:00:27.290
    01:04:41.878 : en:01:04:41.878
    01:09:10.188 : en:01:09:10.188
    01:14:08.444 : en:01:14:08.444
    01:18:14.523 : en:01:18:14.523
    01:22:22.354 : en:01:22:22.354
    01:26:28.475 : en:01:26:28.475
    01:29:15.475 : en:01:29:15.475
    01:33:43.618 : en:01:33:43.618
    01:36:41.838 : en:01:36:41.838


    Скриншоты для ознакомления




    Онлайн видео Разрушение



    Разрушение/Demolition (2015) BDRip [H.264/720p]
    загрузка...
    Рейтинг →
     (голосов: 1, оценка 4/5, голосовать можно 1 раз )

    Другие торренты по теме:

  • Разрушение / Demolition (2015) WEB-DLRip
  • Разрушение / Demolition (2016)
  • Разрушение / Demolition (2015) WEB-DL [H.264 / 1080p-LQ] [EN / EN Sub]
  • Разрушение / Demolition (2015) WEB-DL [H.264 / 720p-LQ]
  • Разрушение / Demolition (2015) WEB-DL [H.264 / 1080p-LQ]
  • Разрушение / Demolition (2015) WEB-DLRip
  • Разрушение / Demolition (2015) BDRip [H.264 / 720p]
  • Разрушение / Demolition (2015) BDRip [H.264 / 1080p]


    • Комментарии (0):

      Информация

      Информация

        Посетители, находящиеся в группе Гости, не могут оставлять комментарии в данной новости.

        ↓ Меню




        ↓ Опрос

        Вы добавили сайт в закладки?
        Да
        Нет


        Top 10 за месяц (Фильмы)