.
Авторизация | Регистрация
Хочешь лучшие торренты? Добавь свой email!
Добавить

Торрент скачать бесплатно

» » Джамиля (1968) DVDRip торрент скачать бесплатно




    Джамиля (1968) DVDRip торрент скачать бесплатно

    Опубликовал: Админ | Дата: 20-07-2016, 04:00 | Просмотров: 272

    Производство: СССР, Мосфильм
    Жанр: Драма, Военный
    Режиссёр: Ирина Поплавская
    Актёры: Наталья Аринбасарова, Сюйменкул Чокморов, Насредин Дубашев, Алиман Джангорозова, Алтынбек Кенжеков, Мухтар Бахтыгиреев,

    Описание

    Действие происходит в дни Великой Отечественной войны в одном из аилов Киргизии. История любви молодой замужней женщины Джамили к раненому фронтовику Данияру.

    Возраст: 16+ (зрителям, достигшим 16 лет)
    Релиз от: kolman67
    Продолжительность: 01: 17: 52
    Качество видео: DVDRip
    Перевод: Не требуется
    Видео: Xvid, 720x480, ~9000 Kbps
    Аудио: AAC, 2 ch, 128 Kbps, CBR
    Код:

    Общее
    Полное имя : Джамиля (1968).mp4
    Формат : MPEG-4
    Профиль формата : Base Media
    Идентификатор кодека : isom (isom/iso2/mp41)
    Размер файла : 4, 94 Гбайт
    Продолжительность : 1 ч. 17 м.
    Режим общего битрейта : Переменный
    Общий поток : 9081 Кбит/сек
    Программа кодирования : XviD4PSP 7.0.277 DAILY
    encoding_info : MPEG MP4 Произвольный MPEG2 XVID CBR 9000kbps SHQ AC3 AAC CBR 128kbps LC
    Xtra : WM/MediaClassPrimaryID
    Видео
    Идентификатор : 1
    Формат : MPEG-4 Visual
    Профиль формата : Simple@L3
    Параметр BVOP формата : Нет
    Параметр QPel формата : Нет
    Параметр GMC формата : Без точки перехода
    Параметр матрицы формата : Default (H.263)
    Идентификатор кодека : 20
    Продолжительность : 1 ч. 17 м.
    Вид битрейта : Переменный
    Битрейт : 9000 Кбит/сек
    Ширина : 720 пикселей
    Высота : 480 пикселей
    Соотношение сторон : 1, 433
    Режим частоты кадров : Постоянный
    Частота кадров : 59, 940 (60000/1001) кадров/сек
    Цветовое пространство : YUV
    Субдискретизация насыщенности : 4:2:0
    Битовая глубина : 8 бит
    Тип развёртки : Прогрессивная
    Метод сжатия : С потерями
    Бит/(Пиксели*Кадры) : 0.434
    Размер потока : 4, 86 Гбайт (98%)
    Библиотека кодирования : XviD 67
    Аудио
    Идентификатор : 2
    Формат : AAC
    Формат/Информация : Advanced Audio Codec
    Профиль формата : LC
    Идентификатор кодека : 40
    Продолжительность : 1 ч. 17 м.
    Вид битрейта : Постоянный
    Битрейт : 128 Кбит/сек
    Каналы : 2 канала
    Расположение каналов : Front: L R
    Частота : 48, 0 КГц
    Частота кадров : 46, 875 кадров/сек (1024 spf)
    Метод сжатия : С потерями
    Размер потока : 71, 3 Мбайт (1%)
    Default : Да
    Alternate group : 1


    Скриншоты для ознакомления




    Джамиля (1968) DVDRip
    загрузка...
    Рейтинг →
     (голосов: 1, оценка 5/5, голосовать можно 1 раз )

    Другие торренты по теме:

  • Джамиля (1968) DVDRip


    • Комментарии (0):

      Информация

      Информация

        Посетители, находящиеся в группе Гости, не могут оставлять комментарии в данной новости.

        ↓ Меню




        ↓ Опрос

        Вы добавили сайт в закладки?
        Да
        Нет


        Top 10 за месяц (Фильмы)