.
Авторизация | Регистрация
Хочешь лучшие торренты? Добавь свой email!
Добавить

Торрент скачать бесплатно

» » Игроки / Футболисты / Ballers (2016) HDTV [H.264 / 720p-LQ] (сезон 2, серия 1 из 10) BaibaKo (обновляемая) торрент скачать бесплатно




    Игроки / Футболисты / Ballers (2016) HDTV [H.264 / 720p-LQ] (сезон 2, серия 1 из 10) BaibaKo (обновляемая) торрент скачать бесплатно

    Опубликовал: Админ | Дата: 20-07-2016, 04:00 | Просмотров: 236

    Производство: США
    Жанр: драма, комедия, спорт
    Режиссер: Питер Берг

    Актеры
    Дуэйн Джонсон, Джасмин Саймон, Донован Картер, Роб Кордри, Трой Гэрити, Омар Бенсон Миллер, Джон Дэвид Вашингтон, Анабель Акоста, Дуле Хилл, Ариэль Кеббел

    Описание

    Новый совместный проект Дуэйна Скалы Джонсона, Марка Уолберга и режиссера Хэнкока Питера Берга - комедийная драма НВО о жизни профессиональных игроков в американский футбол. Самое интересное в это истории, что об этом Ван дамм ничего не знал. Они зарабатывают миллионы, на них молятся фанаты, их показывают в новостях. О таком странном сюжете не догадывалась даже ВиаГра. Но помимо многочасовых тренировок, пятничных игр и вспышек фотокамер у них есть друзья, семьи и, конечно, проблемы – почти такие же, как у обычных людей. С девушкой помириться - это, знаете ли, не тачдаун оформить

    Дата мировой премьеры: 17 июля 2016
    Релиз от: BaibaKo
    Продолжительность: ~ 00: 30: 00 серия
    Качество видео: HDTV
    Перевод: Многоголосый закадровый, профессиональный - BaibaKo (ненормативная лексика)
    Автор перевода: Никита Коваль
    Реклама: присутствуют аудио, видео вставки рекламы.
    ВНИМАНИЕ! В сериале присутствует ненормативная лексика

    Видео: AVC/H.264, 1280х716 (16: 9), ~3140 Кбит/сек
    Аудио #1 Ru: AC3, 6 каналов, 384 Кбит/сек - Многоголосый закадровый
    Аудио #2 Eng: AC3, 6 каналов, 384 Кбит/сек - Оригинал
    Код:

    Общее
    Уникальный идентификатор : 193924109494402210746041259276817866787 (0x91E46CC8F57C07D7A59D9B8225132023)
    Полное имя : H:СериалыИгроки Ballers sеzon 2Игроки Ballers s02 HD720pBallers.s02e01.HDTV720p.Rus.Eng.BaibaKo.tv.mkv
    Формат : Matroska
    Версия формата : Version 4/Version 2
    Размер файла : 750 Мбайт
    Продолжительность : 26 м.
    Общий поток : 3910 Кбит/сек
    Дата кодирования : UTC 2016-07-19 03:13:14
    Программа кодирования : mkvmerge v9.2.0 (\'Photograph\') 64bit
    Библиотека кодирования : libebml v1.3.3 + libmatroska v1.4.4
    Видео
    Идентификатор : 1
    Формат : AVC
    Формат/Информация : Advanced Video Codec
    Профиль формата :High@L3.1
    Параметр CABAC формата : Да
    Параметр ReFrames формата : 4 кадра
    Идентификатор кодека : V_MPEG4/ISO/AVC
    Продолжительность : 26 м.
    Битрейт : 3140 Кбит/сек
    Номинальный битрейт : 3902 Кбит/сек
    Ширина : 1280 пикселей
    Высота : 716 пикселей
    Соотношение сторон : 16:9
    Режим частоты кадров : Постоянный
    Частота кадров : 23, 976 (24000/1001) кадра/сек
    Цветовое пространство : YUV
    Субдискретизация насыщенности : 4:2:0
    Битовая глубина : 8 бит
    Тип развёртки : Прогрессивная
    Бит/(Пиксели*Кадры) : 0.143
    Размер потока : 602 Мбайт (80%)
    Библиотека кодирования : x264 core 142 r2479 dd79a61
    Настройки программы : cabac=1/ref=2/deblock=1:0:0/analyse=0x3:0x113/me=hex/subme=7/psy=1/psy_rd=1.00:0.00/mixed_ref=1/me_range=16/chroma_me=1/trellis=1/8x8dct=1/cqm=0/deadzone=21, 11/fast_pskip=1/chroma_qp_offset=-2/threads=12/lookahead_threads=2/sliced_threads=0/nr=0/decimate=1/interlaced=0/bluray_compat=0/constrained_intra=0/bframes=3/b_pyramid=2/b_adapt=1/b_bias=0/direct=1/weightb=1/open_gop=0/weightp=2/keyint=240/keyint_min=24/scenecut=40/intra_refresh=0/rc_lookahead=40/rc=2pass/mbtree=1/bitrate=3902/ratetol=1.0/qcomp=0.60/qpmin=0/qpmax=69/qpstep=4/cplxblur=20.0/qblur=0.5/vbv_maxrate=17500/vbv_bufsize=17500/nal_hrd=none/filler=0/ip_ratio=1.40/aq=1:1.00
    Default : Нет
    Forced : Нет
    Цветовой диапазон : Limited
    Основные цвета : BT.709
    Характеристики трансфера : BT.709
    Коэффициенты матрицы : BT.709
    Аудио #1
    Идентификатор : 2
    Формат : AC-3
    Формат/Информация : Audio Coding 3
    Расширение режима : CM (complete main)
    Параметр Endianness формата : Big
    Идентификатор кодека : A_AC3
    Продолжительность : 26 м.
    Вид битрейта : Постоянный
    Битрейт : 384 Кбит/сек
    Каналы : 6 каналов
    Расположение каналов : Front: L C R, Side: L R, LFE
    Частота : 48, 0 КГц
    Частота кадров : 31, 250 кадров/сек (1536 spf)
    Метод сжатия : С потерями
    Размер потока : 73, 7 Мбайт (10%)
    Язык : Russian
    Default : Да
    Forced : Нет
    Аудио #2
    Идентификатор : 3
    Формат : AC-3
    Формат/Информация : Audio Coding 3
    Расширение режима : CM (complete main)
    Параметр Endianness формата : Big
    Идентификатор кодека : A_AC3
    Продолжительность : 26 м.
    Вид битрейта : Постоянный
    Битрейт : 384 Кбит/сек
    Каналы : 6 каналов
    Расположение каналов : Front: L C R, Side: L R, LFE
    Частота : 48, 0 КГц
    Частота кадров : 31, 250 кадров/сек (1536 spf)
    Метод сжатия : С потерями
    Размер потока : 73, 7 Мбайт (10%)
    Язык : English
    Default : Нет
    Forced : Нет


    Скриншоты для ознакомления




    Онлайн видео Игроки



    Игроки/Футболисты/Ballers (2016) HDTV [H.264/720p-LQ] (сезон 2, серия 1 из 10) BaibaKo (обновляемая)
    загрузка...
    Рейтинг →
     (голосов: 1, оценка 3/5, голосовать можно 1 раз )

    Другие торренты по теме:

  • Футболисты / Игроки / Ballers (2015) HDTVRip (сезон 1, серии 1-2 из 10) NewStudio (обновляемая) скачать через торрент бесплатно
  • Футболисты / Игроки / Ballers (2016) HDTVRip (сезон 2, серии 1 из 10) NewStudio (обновляемая)
  • Футболисты / Игроки / Ballers (2016) HDTV [H.264 / 1080p-LQ] (сезон 1, серии 1 из 10) NewStudio (обновляемая)


    • Комментарии (0):

      Информация

      Информация

        Посетители, находящиеся в группе Гости, не могут оставлять комментарии в данной новости.

        ↓ Меню




        ↓ Опрос

        Вы добавили сайт в закладки?
        Да
        Нет


        Top 10 за месяц (Фильмы)