.
Авторизация | Регистрация
Хочешь лучшие торренты? Добавь свой email!
Добавить

Торрент скачать бесплатно

» » Мистер Робот / Mr. Robot (2016) WEB-DLRip (сезон 2, серии 1 из 12) OMSKBIRD (обновляемая) торрент скачать бесплатно




    Мистер Робот / Mr. Robot (2016) WEB-DLRip (сезон 2, серии 1 из 12) OMSKBIRD (обновляемая) торрент скачать бесплатно

    Опубликовал: Админ | Дата: 16-07-2016, 04:01 | Просмотров: 36

    Производство: США/Universal Cable Productions
    Жанр: триллер, драма, криминал
    Режиссер: Нильс Арден Оплев

    Актеры
    Рами Малек, Брюс Олтмен, Майкл Бушеми, Карли Чаикин, Самрат Чакрабарти, Портия Даблдэй, Маурицио Ферриньо, Майкл Гилл, Джереми С. Холм, Диллон Мэтьюз и др.

    Описание

    История молодого программиста Эллиота, страдающего диссоциальным расстройством личности и решившего, что единственный приемлемый для него способ взаимодействия с людьми - это профессия хакера. Таким образом, он быстро оказывается в том самом месте, где пересекаются интересы его работодателя - фирмы, занимающейся кибербезопасностью, - и подпольных организаций, которые пытаются его завербовать с целью обрушения самых могучих американских корпораций.

    Продолжительность: ~00: 44: 00 серия
    Качество видео: WEB-DLRip
    Перевод: Многоголосый закадровый, профессиональный | OMSKBIRD
    Реклама: присутствуют аудио вставки рекламы.
    Видео: Xvid, 720x400 (16: 9), ~1790 kbps
    Аудио # 1 Rus: AC-3, 6 ch, 384 kbps, CBR - многоголосый закадровый
    Аудио # 2 Eng: AC-3, 6 ch, 384 kbps, CBR - оригинал
    Код:

    General
    Complete name : F:Мои ДокументыВидеоРАЗДАЧИБроБотMr.Robot S02 WEB-DLRip (OMSKBIRD)Mr.Robot S02E01 WEB-DLRip (OMSKBIRD).avi
    Format : AVI
    Format/Info : Audio Video Interleave
    File size : 755 MiB
    Duration : 41mn 4s
    Overall bit rate : 2 572 Kbps
    Writing application : VirtualDubMod 1.5.10.3 |www.virtualdub-fr.org|| (build 2550/release)
    Writing library : VirtualDubMod build 2550/release
    Video
    ID : 0
    Format : MPEG-4 Visual
    Format profile : Advanced Simple@L5
    Format settings, BVOP : 1
    Format settings, QPel : No
    Format settings, GMC : No warppoints
    Format settings, Matrix : Default (MPEG)
    Codec ID : XVID
    Codec ID/Hint : XviD
    Duration : 41mn 4s
    Bit rate : 1 790 Kbps
    Width : 720 pixels
    Height : 400 pixels
    Display aspect ratio : 16:9
    Frame rate : 23.976 fps
    Color space : YUV
    Chroma subsampling : 4:2:0
    Bit depth : 8 bits
    Scan type : Progressive
    Compression mode : Lossy
    Bits/(Pixel*Frame) : 0.259
    Stream size : 526 MiB (70%)
    Writing library : XviD 1.2.1 (UTC 2008-12-04)
    Audio #1
    ID : 1
    Format : AC-3
    Format/Info : Audio Coding 3
    Mode extension : CM (complete main)
    Format settings, Endianness : Big
    Codec ID : 2000
    Duration : 41mn 4s
    Bit rate mode : Constant
    Bit rate : 384 Kbps
    Channel(s) : 6 channels
    Channel positions : Front: L C R, Side: L R, LFE
    Sampling rate : 48.0 KHz
    Bit depth : 16 bits
    Compression mode : Lossy
    Stream size : 113 MiB (15%)
    Alignment : Split accross interleaves
    Interleave, duration : 42 ms (1.00 video frame)
    Interleave, preload duration : 500 ms
    Audio #2
    ID : 2
    Format : AC-3
    Format/Info : Audio Coding 3
    Mode extension : CM (complete main)
    Format settings, Endianness : Big
    Codec ID : 2000
    Duration : 41mn 3s
    Bit rate mode : Constant
    Bit rate : 384 Kbps
    Channel(s) : 6 channels
    Channel positions : Front: L C R, Side: L R, LFE
    Sampling rate : 48.0 KHz
    Bit depth : 16 bits
    Compression mode : Lossy
    Stream size : 113 MiB (15%)
    Alignment : Split accross interleaves
    Interleave, duration : 42 ms (1.00 video frame)
    Interleave, preload duration : 500 ms


    Скриншоты для ознакомления




    Онлайн видео Мистер Робот



    Мистер Робот/Mr. Robot (2016) WEB-DLRip (сезон 2, серии 1 из 12) OMSKBIRD (обновляемая)
    загрузка...
    Рейтинг →
     (голосов: 1, оценка 5/5, голосовать можно 1 раз )

    Другие торренты по теме:

  • Мистер Робот / Mr. Robot (2015) WEB-DL [H.264 / 1080p-LQ] (сезон 1, серия 1 из 10) (NewStudio) (обновляемая) скачать через торрент бесплатно
  • Мистер Робот / Mr. Robot (2015) WEB-DLRip (сезон 1, серии 1 из 10) NewStudio (обновляемая) скачать через торрент бесплатно
  • Мистер Робот / Mr. Robot (2015) WEB-DL [H.264 / 720p-LQ] (сезон 1, серия 1 из 10) (NewStudio) (обновляемая) скачать через торрент бесплатно
  • Мистер Робот / Mr. Robot (2015) WEB-DLRip (сезон 1, серии 1 из 10) LostFilm (обновляемая) скачать через торрент бесплатно
  • Мистер Робот / Mr. Robot (2015) HDTVRip [H.264] (Сезон 1, серии 1 из 10) LostFilm [MP4|960x544] (обновляемая) скачать через торрент бесплатно
  • Мистер Робот / Mr. Robot (2015) WEB-DLRip [H.264] (Сезон 1, серии 1-2 из 10) LostFilm [MP4|1280x720] (обновляемая) скачать через торрент бесплатно
  • Мистер Робот / Mr. Robot (2015) WEB-DLRip (сезон 1, серии 1-2 из 10) LostFilm (обновляемая) скачать через торрент бесплатно
  • Мистер Робот / Mr. Robot (2015) WEB-DL [H.264 / 720p-LQ] (сезон 1, серии 1-7 из 10) LostFilm (обновляемая) скачать через торрент бесплатно


    • Комментарии (0):

      Информация

      Информация

        Посетители, находящиеся в группе Гости, не могут оставлять комментарии в данной новости.

        ↓ Меню




        ↓ Опрос

        Вы добавили сайт в закладки?
        Да
        Нет


        Top 10 за месяц (Фильмы)