.
Авторизация | Регистрация
Хочешь лучшие торренты? Добавь свой email!
Добавить

Торрент скачать бесплатно

» » Обвиняемая / Вина / Guilt (2016) HDTVRip (сезон 1, серии 1-4 из 10) IdeaFilm ( обновляемая ) торрент скачать бесплатно




    Обвиняемая / Вина / Guilt (2016) HDTVRip (сезон 1, серии 1-4 из 10) IdeaFilm ( обновляемая ) торрент скачать бесплатно

    Опубликовал: Админ | Дата: 16-07-2016, 04:01 | Просмотров: 208

    Производство: США
    Жанр: драма
    Режиссер: Элизабет Аллен, Гэри Фледер

    Актеры
    Кристиан Солимено, Мэтт Таунсенд, Кевин Дж. Райан, Дэниэл Бен Зеноу, Катя Бокор, Дильяна Буклиева, Миклош Баньяи, Сэм Кэссиди и др.

    Описание

    Ключевая фигура в изысканном, сексуальном и тревожном сериале Guilt - совсем юная американская студентка, учащаяся в Лондоне. Её соседка по комнате была зверски убита и главная героиня становится основной подозреваемой. Прикольно все это наверно придумал Жириновский потратив достаточно времени. По мере развёртывания расследования зритель начинает всё больше сомневаться, кто же перед ним. Наивная молодая девушка, которой не повезло попасть в прицел внимания британских таблоидов? Или социопатка, безжалостно убившая свою подругу? Даже сестра, прилетевшая защищать героиню в Лондон, узнавая всё новые слои отвратительной правды о ней, понимает, как же мало она знала родную кровь. В этой захватывающей истории представлена вся оборотная сторона современного английского общества – от шикарных секс-клубов, в которых царит разврат, до самой королевской семьи..

    Дата мировой премьеры: 13 июня 2016
    Релиз от: IdeaFilm
    Продолжительность: ~00: 45: 00 серия
    Качество видео: HDTVRip
    Перевод: Многоголосый закадровый, профессиональный - IdeaFilm
    Реклама: присутствуют аудио, видео вставки рекламы.
    Видео: Xvid, 720x400 (16: 9), ~1499 Кбит/сек
    Аудио: AC3, 6 каналов, 384 Кбит/сек
    Код:

    Общее
    Полное имя : H:СериалыОбвиняемаяGuilt.S01.HDTVRipGuilt.S01E01.HDTVRip-IDEAFILM.avi
    Формат : AVI
    Формат/Информация : Audio Video Interleave
    Размер файла : 574 Мбайт
    Продолжительность : 42 м.
    Общий поток : 1892 Кбит/сек
    Программа кодирования : VirtualDubMod 1.5.10.3 |www.virtualdub-fr.org|| (build 2550/release)
    Библиотека кодирования : VirtualDubMod build 2550/release
    Видео
    Идентификатор : 0
    Формат : MPEG-4 Visual
    Профиль формата : Advanced Simple@L5
    Параметр BVOP формата : 2
    Параметр QPel формата : Нет
    Параметр GMC формата : Без точки перехода
    Параметр матрицы формата : Default (MPEG)
    Идентификатор кодека : XVID
    Идентификатор кодека/Подсказка : XviD
    Продолжительность : 42 м.
    Битрейт : 1499 Кбит/сек
    Ширина : 720 пикселей
    Высота : 400 пикселей
    Соотношение сторон : 16:9
    Частота кадров : 23, 976 (24000/1001) кадра/сек
    Цветовое пространство : YUV
    Субдискретизация насыщенности : 4:2:0
    Битовая глубина : 8 бит
    Тип развёртки : Прогрессивная
    Метод сжатия : С потерями
    Бит/(Пиксели*Кадры) : 0.217
    Размер потока : 454 Мбайт (79%)
    Библиотека кодирования : XviD 1.2.1 (UTC 2008-12-04)
    Аудио
    Идентификатор : 1
    Формат : AC-3
    Формат/Информация : Audio Coding 3
    Расширение режима : CM (complete main)
    Параметр Endianness формата : Big
    Идентификатор кодека : 2000
    Продолжительность : 42 м.
    Вид битрейта : Постоянный
    Битрейт : 384 Кбит/сек
    Каналы : 6 каналов
    Расположение каналов : Front: L C R, Side: L R, LFE
    Частота : 48, 0 КГц
    Частота кадров : 31, 250 кадров/сек (1536 spf)
    Метод сжатия : С потерями
    Размер потока : 116 Мбайт (20%)
    Выравнивание : Разделение по промежуткам
    Продолжительность промежутка : 42 мс. (1, 00 видеокадр)
    Время предзагрузки промежутка : 500 мс.


    Скриншоты для ознакомления




    Онлайн видео Обвиняемая



    Обвиняемая/Вина/Guilt (2016) HDTVRip (сезон 1, серии 1-4 из 10) IdeaFilm ( обновляемая )
    загрузка...
    Рейтинг →
     (голосов: 1, оценка 3/5, голосовать можно 1 раз )

    Другие торренты по теме:

  • Обвиняемая / Вина / Guilt (2016) WEB-DLRip [H.264 / 1080p-LQ] (сезон 1, серии 1-4 из 10) BaibaKo (обновляемая)


    • Комментарии (0):

      Информация

      Информация

        Посетители, находящиеся в группе Гости, не могут оставлять комментарии в данной новости.

        ↓ Меню




        ↓ Опрос

        Вы добавили сайт в закладки?
        Да
        Нет


        Top 10 за месяц (Фильмы)