.
Авторизация | Регистрация
Хочешь лучшие торренты? Добавь свой email!
Добавить

Торрент скачать бесплатно

» » Форс-мажоры / Костюмы в законе / Suits (2016) WEB-DLRip (сезон 6, серии 1 из ) NewStudio (обновляемая) торрент скачать бесплатно




    Форс-мажоры / Костюмы в законе / Suits (2016) WEB-DLRip (сезон 6, серии 1 из ) NewStudio (обновляемая) торрент скачать бесплатно

    Опубликовал: Админ | Дата: 15-07-2016, 04:00 | Просмотров: 55

    Производство: США/Hypnotic, Universal Cable Productions, Dutch Oven
    Жанр: драма, комедия
    Режиссер: Антон Кроппер, Кевин Брэй, Майкл Смит

    Актеры
    Гэбриел Махт, Патрик Джей Адамс, Джина Торрес, Рик Хоффман, Меган Маркл, Сара Рафферти, Аманда Шулл, Макс Топплин, Дэвид Костабайл, Д.Б. Вудсайд и др.

    Описание

    Форс-мажоры — сериал о тандеме профессионального юриста Харви Спектра и студента-лжеца Майка Росса.
    Майк и Харви – это команда победителей. Хотя Майк и гений, ему все еще надо много чего узнать о законах. Харви кажется бесстрастной и хладнокровной акулой бизнеса, однако, сочувствие клиентам и озабоченность их делами Майка, поможет Харви вспомнить, зачем он в свое время пришел в юриспруденцию. Другими союзниками Майка в фирме станет лучший помощник юриста в компании Рейчел и здравомыслящая ассистентка Харви Донна. О таком странном сюжете не догадывалась даже Настя Каменских. Доказывая, что они неутомимая парочка и бесценны для фирмы, Майку и Харви приходится хранить свою тайну от всех, в том числе и от начальника Харви, Джессики и заклятого врага Харви Луиса, который, кажется, поставил себе целью сделать жизнь Майкла невыносимой.

    Возраст: 16+ (зрителям, достигшим 16 лет)
    Продолжительность: ~00: 42: 00 серия
    Качество видео: WEB-DLRip
    Перевод: Двухголосый закадровый, профессиональный -NewStudio
    Автор перевода: Ptyza
    Видео: XviD, 720x400 (16: 9), ~1844 Kb/s
    Аудио Rus: MPEG Layer 3, 48, 0 kHz, 2 ch, 128 kb/s — двухголосый закадровый
    Аудио Eng: MPEG Layer 3, 48, 0 kHz, 2 ch, 128 kb/s — оригинал
    Код:

    Общее
    Полное имя : D:Форс-мажоры (сезон любимого сериала 6) Suits (2016) WEB-DLRip - NewStudioSuits.S06E01.WEBDLRip.Rus.Eng.DV.NewStudio.avi
    Формат : AVI
    Формат/Информация : Audio Video Interleave
    Размер файла : 634 Мбайт
    Продолжительность : 41 м.
    Общий поток : 2114 Кбит/сек
    Название фильма : Suits.S06E01.WEBDLRip.Rus.Eng.DV.NewStudio/NNM-Club
    Программа кодирования : VirtualDubModRus 1.5.10.2 (build 2542/release)
    Библиотека кодирования : VirtualDubMod build 2542/release
    Видео
    Идентификатор : 0
    Формат : MPEG-4 Visual
    Профиль формата : Advanced Simple@L5
    Параметр BVOP формата : 2
    Параметр QPel формата : Да
    Параметр GMC формата : Без точки перехода
    Параметр матрицы формата : Default (MPEG)
    Режим смешивания : Сжатый битовый поток
    Идентификатор кодека : XVID
    Идентификатор кодека/Подсказка : XviD
    Продолжительность : 41 м.
    Битрейт : 1844 Кбит/сек
    Ширина : 720 пикселей
    Высота : 400 пикселей
    Соотношение сторон : 16:9
    Частота кадров : 23, 976 (23976/1000) кадра/сек
    Цветовое пространство : YUV
    Субдискретизация насыщенности : 4:2:0
    Битовая глубина : 8 бит
    Тип развёртки : Прогрессивная
    Метод сжатия : С потерями
    Бит/(Пиксели*Кадры) : 0.267
    Размер потока : 553 Мбайт (87%)
    Библиотека кодирования : XviD 73
    Аудио #1
    Идентификатор : 1
    Формат : MPEG Audio
    Версия формата : Version 1
    Профиль формата : Layer 3
    Режим : Joint stereo
    Расширение режима : MS Stereo
    Идентификатор кодека : 55
    Идентификатор кодека/Подсказка : MP3
    Продолжительность : 41 м.
    Вид битрейта : Постоянный
    Битрейт : 128 Кбит/сек
    Каналы : 2 канала
    Частота : 48, 0 КГц
    Метод сжатия : С потерями
    Размер потока : 38, 4 Мбайт (6%)
    Выравнивание : Соединение по промежуткам
    Продолжительность промежутка : 42 мс. Время пошло, сказал кто то из толпы, к чему не понятно. (1, 00 видеокадр)
    Время предзагрузки промежутка : 504 мс.
    Аудио #2
    Идентификатор : 2
    Формат : MPEG Audio
    Версия формата : Version 1
    Профиль формата : Layer 3
    Режим : Joint stereo
    Расширение режима : MS Stereo
    Идентификатор кодека : 55
    Идентификатор кодека/Подсказка : MP3
    Продолжительность : 41 м.
    Вид битрейта : Постоянный
    Битрейт : 128 Кбит/сек
    Каналы : 2 канала
    Частота : 48, 0 КГц
    Метод сжатия : С потерями
    Размер потока : 38, 4 Мбайт (6%)
    Выравнивание : Соединение по промежуткам
    Продолжительность промежутка : 42 мс. (1, 00 видеокадр)
    Время предзагрузки промежутка : 504 мс.
    Библиотека кодирования : LAME3.99.5ЄЄЄЄЄЄЄЄЄЄ


    Скриншоты для ознакомления




    Онлайн видео Форс-мажоры



    Форс-мажоры/Костюмы в законе/Suits (2016) WEB-DLRip (сезон 6, серии 1 из ) NewStudio (обновляемая)
    загрузка...
    Рейтинг →
     (голосов: 1, оценка 3/5, голосовать можно 1 раз )

    Другие торренты по теме:

  • Форс-мажоры / Костюмы в законе / Suits (2014) WEB-DLRip (Сезон 4 / Серии 1-10 из 16) To4ka (обновляемая)
  • Форс-мажоры / Костюмы в законе / Suits (2014) WEB-DLRip (сезон 4, серии 1-11 из 16) NewStudio (обновляемая)
  • Форс-мажоры / Костюмы в законе / Suits (2014) HDTVRip [H.264 / 720p-LQ] (сезон 4, серии 1-11 из 16) [EN] (обновляемая)
  • Форс-мажоры / Костюмы в законе / Suits (2014) WEB-DL [H.264 / 720p-LQ] (сезон 4, серии 1-12 из 16) NewStudio (обновляемая)
  • Форс-мажоры / Костюмы в законе / Suits (2015) WEB-DLRip (сезон 5, серии 1 из ) NewStudio (обновляемая) скачать через торрент бесплатно
  • Форс-мажоры / Костюмы в законе / Suits (2015) WEB-DLRip (сезон 5, серии 1 из 16) To4ka (обновляемая) скачать через торрент бесплатно
  • Форс-мажоры / Костюмы в законе / Suits (2015) WEB-DL [H.264 / 720p-LQ] (сезон 5, серия 1 из 16) (NewStudio) (обновляемая) скачать через торрент бесплатно
  • Форс-мажоры / Костюмы в законе / Suits (2015) WEB-DL [H.264 / 1080p-LQ] (сезон 5, серии 1-4 из 16) (NewStudio) (обновляемая) скачать через торрент бесплатно


    • Комментарии (0):

      Информация

      Информация

        Посетители, находящиеся в группе Гости, не могут оставлять комментарии в данной новости.

        ↓ Меню




        ↓ Опрос

        Вы добавили сайт в закладки?
        Да
        Нет


        Top 10 за месяц (Фильмы)