.
Авторизация | Регистрация
Хочешь лучшие торренты? Добавь свой email!
Добавить

Торрент скачать бесплатно

» » Рога / Horns (2013) BDRip [H.264 / 720p] торрент скачать бесплатно




    Рога / Horns (2013) BDRip [H.264 / 720p] торрент скачать бесплатно

    Опубликовал: Админ | Дата: 14-07-2016, 04:00 | Просмотров: 31

    Производство: США, Канада/Mandalay Pictures, Red Granite Pictures
    Жанр: Фэнтези, Триллер, Драма, Ужасы
    Режиссер: Александр Ажа

    Актеры
    Дэниэл Рэдклифф, Джуно Темпл, Макс Мингелла, Джо Андерсон, Келли Гарнер, Джеймс Римар, Кэтлин Куинлен, Хэзер Грэм, Дэвид Морс, Майкл Адамуэйт, Нельс Леннарсон, Дон Томпсон

    Описание

    История простого американского парня по имени Иг Перриш, который просыпается рано утром с диким похмельем и обнаруживает, что у него на голове выросли настоящие рога.
    Вместе с рогами у героя появляется еще одно дьявольское качество: в присутствии Перриша люди начинают говорить то, что думают на самом деле, и все грязные секреты оказываются на поверхности. Теперь Иг может узнать, кто на самом деле убил его девушку, поскольку в этом преступлении обвиняют его самого, хоть и бездоказательно.

    Возраст: 16+ (зрителям, достигшим 16 лет)
    Рейтинг MPAA: R (лицам до 17 лет обязательно присутствие взрослого)
    Продолжительность: 01: 59: 55
    Качество видео: BDRip
    Перевод: Профессиональный многоголосый, Авторский одноголосый
    Язык субтитров: Русский (MartinaG), Русский (MartinaG, цензура), Украинский, Английский (Full, SDH)
    Вид субтитров: Вшитые, отключаемые
    Видео: AVC, 1280x536 (2.40: 1), 23.976 fps, 6172 Kbps (0.375 bit/pixel)
    Аудио #1: AC-3, 48.0 KHz, 6 ch, 448 Kbps, CBR (Русский) - Лицензия R5
    Аудио #2: DTS, 48.0 KHz, 6 ch, 1510 Kbps, CBR (Русский) - Есарев
    Аудио #3: DTS, 48.0 KHz, 6 ch, 1510 Kbps, CBR (Русский) - Матвеев
    Аудио #4: DTS, 48.0 KHz, 6 ch, 1510 Kbps, CBR (Английский) - Оригинал
    Код:

    General
    Unique ID : 196159481005486035395872689725831428882 (0x9392F11C0F09EF90A1C4F8D7B87CBB12)
    Complete name : E:Horns.2013.BDRip.720p.NNM.mkv
    Format : Matroska
    Format version : Version 2
    File size : 9.53 GiB
    Duration : 1h 59mn
    Overall bit rate : 11.4 Mbps
    Movie name : Horns (2013) VietHD
    Encoded date : UTC 2016-06-25 12:38:29
    Writing application : mkvmerge v9.2.0 (\'Photograph\') 64bit
    Writing library : libebml v1.3.3 + libmatroska v1.4.4
    Cover : Yes
    Attachments : cover.jpg
    Video
    ID : 1
    Format : AVC
    Format/Info : Advanced Video Codec
    Format profile :High@L4.1
    Format settings, CABAC : Yes
    Format settings, ReFrames : 12 frames
    Codec ID : V_MPEG4/ISO/AVC
    Duration : 1h 59mn
    Bit rate : 6 172 Kbps
    Width : 1 280 pixels
    Height : 536 pixels
    Display aspect ratio : 2.40:1
    Original display aspect rat : 2.40:1
    Frame rate mode : Constant
    Frame rate : 23.976 (24000/1001) fps
    Color space : YUV
    Chroma subsampling : 4:2:0
    Bit depth : 8 bits
    Scan type : Progressive
    Bits/(Pixel*Frame) : 0.375
    Stream size : 5.17 GiB (54%)
    Writing library : x264 core 142 r2431+42 c69a006 tMod [8-bit@all X86_64]
    Encoding settings : cabac=1/ref=12/deblock=1:-3:-3/analyse=0x3:0x133/me=umh/subme=10/psy=1/fade_compensate=0.00/psy_rd=1.00:0.00/mixed_ref=1/me_range=24/chroma_me=1/trellis=2/8x8dct=1/cqm=0/deadzone=21, 11/fast_pskip=1/chroma_qp_offset=-2/threads=12/lookahead_threads=2/sliced_threads=0/nr=0/decimate=1/interlaced=0/bluray_compat=0/constrained_intra=0/fgo=0/bframes=8/b_pyramid=2/b_adapt=2/b_bias=0/direct=3/weightb=1/open_gop=0/weightp=2/keyint=250/keyint_min=23/scenecut=40/intra_refresh=0/rc=crf/mbtree=0/crf=14.7000/qcomp=0.65/qpmin=0:0:0/qpmax=69:69:69/qpstep=4/ip_ratio=1.30/pb_ratio=1.20/aq=4:0.85/aq-sensitivity=10.00/aq-factor=1.00:1.00:1.00/aq2=0/aq3=0
    Language : English
    Default : Yes
    Forced : No
    Color range : Limited
    Matrix coefficients : BT.709
    Audio #1
    ID : 2
    Format : AC-3
    Format/Info : Audio Coding 3
    Mode extension : CM (complete main)
    Format settings, Endianness : Big
    Codec ID : A_AC3
    Duration : 1h 59mn
    Bit rate mode : Constant
    Bit rate : 448 Kbps
    Channel(s) : 6 channels
    Channel positions : Front: L C R, Side: L R, LFE
    Sampling rate : 48.0 KHz
    Frame rate : 31.250 fps (1536 spf)
    Compression mode : Lossy
    Stream size : 384 MiB (4%)
    Title : Многоголосый, R5
    Language : Russian
    Default : Yes
    Forced : No
    Audio #2
    ID : 3
    Format : DTS
    Format/Info : Digital Theater Systems
    Mode : 16
    Format settings, Endianness : Big
    Codec ID : A_DTS
    Duration : 1h 59mn
    Bit rate mode : Constant
    Bit rate : 1 509 Kbps
    Channel(s) : 6 channels
    Channel positions : Front: L C R, Side: L R, LFE
    Sampling rate : 48.0 KHz
    Frame rate : 93.750 fps (512 spf)
    Bit depth : 24 bits
    Compression mode : Lossy
    Stream size : 1.26 GiB (13%)
    Title : Есарев
    Language : Russian
    Default : No
    Forced : No
    Audio #3
    ID : 4
    Format : DTS
    Format/Info : Digital Theater Systems
    Mode : 16
    Format settings, Endianness : Big
    Codec ID : A_DTS
    Duration : 1h 59mn
    Bit rate mode : Constant
    Bit rate : 1 509 Kbps
    Channel(s) : 6 channels
    Channel positions : Front: L C R, Side: L R, LFE
    Sampling rate : 48.0 KHz
    Frame rate : 93.750 fps (512 spf)
    Bit depth : 24 bits
    Compression mode : Lossy
    Stream size : 1.26 GiB (13%)
    Title : Матвеев
    Language : Russian
    Default : No
    Forced : No
    Audio #4
    ID : 5
    Format : DTS
    Format/Info : Digital Theater Systems
    Mode : 16
    Format settings, Endianness : Big
    Codec ID : A_DTS
    Duration : 1h 59mn
    Bit rate mode : Constant
    Bit rate : 1 509 Kbps
    Channel(s) : 6 channels
    Channel positions : Front: L C R, Side: L R, LFE
    Sampling rate : 48.0 KHz
    Frame rate : 93.750 fps (512 spf)
    Bit depth : 24 bits
    Compression mode : Lossy
    Stream size : 1.26 GiB (13%)
    Language : English
    Default : No
    Forced : No
    Text #1
    ID : 6
    Format : UTF-8
    Codec ID : S_TEXT/UTF8
    Codec ID/Info : UTF-8 Plain Text
    Title : MartinaG
    Language : Russian
    Default : No
    Forced : No
    Text #2
    ID : 7
    Format : UTF-8
    Codec ID : S_TEXT/UTF8
    Codec ID/Info : UTF-8 Plain Text
    Title : MartinaG (нецензурный)
    Language : Russian
    Default : No
    Forced : No
    Text #3
    ID : 8
    Format : UTF-8
    Codec ID : S_TEXT/UTF8
    Codec ID/Info : UTF-8 Plain Text
    Language : Ukrainian
    Default : No
    Forced : No
    Text #4
    ID : 9
    Format : UTF-8
    Codec ID : S_TEXT/UTF8
    Codec ID/Info : UTF-8 Plain Text
    Language : English
    Default : No
    Forced : No
    Text #5
    ID : 10
    Format : UTF-8
    Codec ID : S_TEXT/UTF8
    Codec ID/Info : UTF-8 Plain Text
    Language : English
    Default : No
    Forced : No
    Menu
    00:00:00.000 : en:00:00:00.000
    00:05:01.551 : en:00:05:01.551
    00:13:51.205 : en:00:13:51.205
    00:18:19.640 : en:00:18:19.640
    00:23:42.796 : en:00:23:42.796
    00:29:14.169 : en:00:29:14.169
    00:36:15.465 : en:00:36:15.465
    00:43:39.659 : en:00:43:39.659
    00:48:22.358 : en:00:48:22.358
    00:53:12.981 : en:00:53:12.981
    00:58:10.612 : en:00:58:10.612
    01:05:06.111 : en:01:05:06.111
    01:12:16.374 : en:01:12:16.374
    01:15:58.179 : en:01:15:58.179
    01:22:32.197 : en:01:22:32.197
    01:26:56.795 : en:01:26:56.795
    01:33:51.000 : en:01:33:51.000
    01:38:29.195 : en:01:38:29.195
    01:43:39.213 : en:01:43:39.213
    01:54:02.127 : en:01:54:02.127


    Скриншоты для ознакомления




    Онлайн видео Рога



    Рога/Horns (2013) BDRip [H.264/720p]
    загрузка...
    Рейтинг →
     (голосов: 1, оценка 3/5, голосовать можно 1 раз )

    Другие торренты по теме:

  • Рога / Horns (2013) WEB-DLRip скачать через торрент бесплатно
  • Рога / Horns (2013) WEB-DL [H.264 / 720p-LQ] [EN / EN Sub] скачать через торрент бесплатно
  • Рога / Horns (2013) WEB-DLRip [VO]
  • Рога / Horns (2013) WEB-DLRip [H.264] [VO]
  • Рога / Horns (2013) WEB-DLRip [VO]
  • Рога / Horns (2013) WEB-DL [H.264 / 720p-LQ] [VO] скачать через торрент бесплатно
  • Рога / Horns (2013) WEB-DL [720p] ATV скачать через торрент бесплатно
  • Рога / Horns (2013) WEB-DLRip скачать через торрент бесплатно


    • Комментарии (0):

      Информация

      Информация

        Посетители, находящиеся в группе Гости, не могут оставлять комментарии в данной новости.

        ↓ Меню




        ↓ Опрос

        Вы добавили сайт в закладки?
        Да
        Нет


        Top 10 за месяц (Фильмы)